Торрент файл
скачать торрент магнет ссылка Добавлен: 17 май 2018, 02:00
Размер: 3.41 ГБ
Сидеров: 606
Личеров: 259
Статус: (salma3)
Автор

СообщениеДобавлено: 17 май 2018, 02:00 

Не в сети
Супермодератор
Аватара пользователя
Дата регистрации:
15 фев 2012, 16:44
Возраст: 28
Спасибо: 7165 / 2147
Сообщения: 61900
Год выхода: 2018
Жанр: Фантастика, боевик, приключения
Режиссер: Стивен С. ДеНайт

В ролях: Джон Бойега, Скотт Иствуд, Кэйли Спэни, Берн Горман, Чарли Дэй, Тянь Цзин, Макс Чжан, Адриа Архона, Ринко Кикучи, Каран Брэр, Уэсли Вон, Иванна Сахно, Макэню Арата, Лили Цзи, Ширли Родригес, Цзытун Чэнь, Дастин Клер, Сяовэй Юй, Юнчэнь Цянь, Леви Миден, Цзямин Го, Инъин Лань, Зеппелин Хэмилтон

О фильме:
События происходят через несколько лет после битвы за Тихоокеанский рубеж, когда команда пилотируемых роботов-защитников остановила вторжение на нашу планету гигантских монстров-Кайдзю и закрыла связывающий миры портал. Города восстанавливаются после разрушительных сражений. Рассказы о войне и её героях становятся историей. Однако многие считают, что Кайдзю вернутся, поэтому отбор и подготовка новых пилотов не прекращаются. Действительно, очень скоро становится понятно, что война не окончена, и своё право на Землю предстоит отстаивать уже новому поколению.



Страна: Китай, США,
Продолжительность: 01:50:41
Перевод: Дублированный | iTunes

Качество: WEB-DL 720p
Видео: MPEG-4 AVC, 1280x532, 4023 Kbit/s, 23.976 fps
Аудио: 48 kHz, AC3, 5.1, 384 Kbps | iTunes | RUS

General
Unique ID : 121577014644815889935502604503759992786 (0x5B76E19D3A7B396494E3BF1143FC37D2)
Complete name : C:Video111Pacific.Rim.Uprising.2018.WEB-DL.720p.ExKinoRay.mkv
Format : Matroska
Format version : Version 4 / Version 2
File size : 3.41 GiB
Duration : 1 h 50 min
Overall bit rate : 4 409 kb/s
Movie name : Pacific.Rim.Uprising 2018 from ExKinoRay
Encoded date : UTC 2018-05-16 18:30:15
Writing application : mkvmerge v22.0.0 ('At The End Of The World') 64-bit
Writing library : libebml v1.3.5 + libmatroska v1.4.8
Video
ID : 1
Format : AVC
Format/Info : Advanced Video Codec
Format profile : [email protected]
Format settings : 2 Ref Frames
Format settings, CABAC : No
Format settings, ReFrames : 2 frames
Codec ID : V_MPEG4/ISO/AVC
Duration : 1 h 50 min
Bit rate : 4 023 kb/s
Width : 1 280 pixels
Height : 532 pixels
Display aspect ratio : 2.40:1
Frame rate mode : Constant
Frame rate : 23.976 (23976/1000) FPS
Color space : YUV
Chroma subsampling : 4:2:0
Bit depth : 8 bits
Scan type : Progressive
Bits/(Pixel*Frame) : 0.246
Stream size : 3.11 GiB (91%)
Language : English
Default : Yes
Forced : No
Color range : Limited
Color primaries : BT.709
Transfer characteristics : BT.709
Matrix coefficients : BT.709
Audio
ID : 2
Format : AC-3
Format/Info : Audio Coding 3
Codec ID : A_AC3
Duration : 1 h 50 min
Bit rate mode : Constant
Bit rate : 384 kb/s
Channel(s) : 6 channels
Channel positions : Front: L C R, Side: L R, LFE
Sampling rate : 48.0 kHz
Frame rate : 31.250 FPS (1536 SPF)
Bit depth : 16 bits
Compression mode : Lossy
Stream size : 304 MiB (9%)
Title : iTunes
Language : Russian
Service kind : Complete Main
Default : Yes
Forced : Yes
Menu
00:00:00.000 : en:1
00:06:55.874 : en:2
00:13:06.369 : en:3
00:15:52.076 : en:4
00:20:37.361 : en:5
00:24:50.697 : en:6
00:31:09.242 : en:7
00:37:57.066 : en:8
00:43:38.948 : en:9
00:49:02.938 : en:10
00:53:41.925 : en:11
00:58:13.028 : en:12
01:04:46.004 : en:13
01:09:26.533 : en:14
01:14:37.718 : en:15
01:22:54.422 : en:16
01:29:03.540 : en:17
01:33:11.578 : en:18
01:38:08.374 : en:19
01:40:56.041 : en:20

Релиз от: Автор релиза:


_________________
Проголосуй за трекер Открытый торрент трекер - RUS-MEDIA.ORG

Проголосуй Открытый торрент трекер - RUS-MEDIA.ORG


Вернуться к началу
 Профиль Отправить личное сообщение  
 
   Похожие торренты   Автор   Торрент   Размер 
В этой теме нет новых непрочитанных сообщений. Тихоокеанский рубеж 2 / Pacific Rim Uprising [Фантастика, боевик, приключения, 2018] WEB-DL 1080p, Dub [iTunes]

salma3

5809 | 1471

3.79 ГБ

В этой теме нет новых непрочитанных сообщений. Тихоокеанский рубеж 2 / Pacific Rim Uprising [Фантастика, боевик, приключения, 2018] WEB-DLRip, Dub [iTunes]

salma3

8950 | 1004

1.46 ГБ

В этой теме нет новых непрочитанных сообщений. Тихоокеанский рубеж 2 / Pacific Rim Uprising [фантастика, боевик, приключения, 2018] WEBRip 720p, Mvo

salma3

1892 | 354

3.51 ГБ

В этой теме нет новых непрочитанных сообщений. Тихоокеанский рубеж 2 / Pacific Rim Uprising [фантастика, боевик, приключения, 2018] HDTVRip, Mvo

salma3

2806 | 612

1.46 ГБ

В этой теме нет новых непрочитанных сообщений. Тихоокеанский рубеж 2 / Pacific Rim Uprising [фантастика, боевик, приключения, 2018] WEBRip-AVC, Mvo

salma3

1168 | 194

2.16 ГБ

В этой теме нет новых непрочитанных сообщений. Тихоокеанский рубеж 2 / Pacific Rim Uprising [фантастика, боевик, приключения, 2018] WEBRip 1080p, Mvo

salma3

8074 | 1027

4.84 ГБ

В этой теме нет новых непрочитанных сообщений. Тихоокеанский рубеж 2 / Pacific Rim Uprising [фантастика, боевик, приключения, 2018] WEBRip 1080p, Mvo

salma3

770 | 365

11.24 ГБ


Начать новую тему Ответить на тему  [ 1 сообщение ] 




Для Мосгорсуда, Роскомнадзора и рекламодателей:: mosgorsud-torrent[собачка]yandex.ru
cron