Торрент файл
скачать торрент магнет ссылка Добавлен: 11 апр 2018, 02:56
Размер: 9.02 ГБ
Сидеров: 0
Личеров: 1
Статус: (salma3)
Автор

СообщениеДобавлено: 11 апр 2018, 02:56 

Не в сети
Супермодератор
Аватара пользователя
Дата регистрации:
15 фев 2012, 16:44
Возраст: 28
Спасибо: 7290 / 2147
Сообщения: 70553
Год выпуска: 1989
Выпущено: США, Cinetel Films, Zeta Entertainment Ltd.
Жанр: Ужасы, триллер
Режиссер: Майкл Шредер

В ролях: Кэмерон Дай, Карен Блэк, Бад Корт, Линн Даниэльсон, Старр Андреефф, Дивайн, Джеффри Льюис, Трейси Уолтер, Карен Майо-Чэндлер, Сильвана Галлардо

О фильме:
Некто, одетый в клоунские костюм и маску и назвавшийся Бобо, убивает на улице девушку из службы “Секс по телефону”. Её коллеги огорчаются, но ненадолго – надо ведь и деньги на хлеб насущный зарабатывать. Но новая смерть секс-телефонистки заставляет их сильно забеспокоиться за свои жизни, тем паче что им сыпятся телефонные звонки с угрозами. Копы начинают подозревать в убийствах фотографа моделей, который крутил лясы не только с убитыми, но и с другой, ещё пока живой женщиной, работающей в означенной фирме. Они оба, подозреваемый и телефонистка, объединяются и проводят собственное расследование, которое приведёт их к ужасному открытию…

Продолжительность: 01:29:13
Перевод: Авторский
Субтитры: Нет
Навигация по главам: Есть

Файл
Качество: WEB-DL 1080p
Видео: MPEG-4 AVC, 13,5 Мбит/сек, 1920x1080, 23,976 кадра/сек
Аудио #1: AC3, 2 ch, 192 Кбит/сек | Русский, авторский (одноголосый закадровый) Андрей Дольский
Аудио #2: AC3, 2 ch, 224 Кбит/сек | Русский, авторский (одноголосый закадровый) Леонид Володарский
Аудио #3: AC3, 2 ch, 224 Кбит/сек | Английский, оригинал



Общее
Уникальный идентификатор : 172332225982512746002150766269443464512 (0x81A5FABC98D9AF4D8149409FCB51DD40)
Полное имя : Из.тьмы.1989.WEB-DL.1080p.mkv
Формат : Matroska
Версия формата : Version 2
Размер файла : 9,02 Гбайт
Продолжительность : 1 ч. 29 м.
Режим общего битрейта : Переменный
Общий поток : 14,5 Мбит/сек
Дата кодирования : UTC 2018-04-10 07:15:17
Программа кодирования : mkvmerge v5.8.0 ('No Sleep / Pillow') built on Sep 2 2012 15:37:04
Библиотека кодирования : libebml v1.2.3 + libmatroska v1.3.0

Видео
Идентификатор : 1
Формат : AVC
Формат/Информация : Advanced Video Codec
Профиль формата : [email protected]
Настройки формата : CABAC / 4 Ref Frames
Параметр CABAC формата : Да
Параметр RefFrames формата : 4 кадра
Идентификатор кодека : V_MPEG4/ISO/AVC
Продолжительность : 1 ч. 29 м.
Вид битрейта : Переменный
Битрейт : 13,5 Мбит/сек
Максимальный битрейт : 15,0 Мбит/сек
Ширина : 1920 пикселей
Высота : 1080 пикселей
Соотношение сторон : 16:9
Режим частоты кадров : Постоянный
Частота кадров : 23,976 (24000/1001) кадра/сек
Цветовое пространство : YUV
Субдискретизация насыщенности : 4:2:0
Битовая глубина : 8 бит
Тип развёртки : Прогрессивная
Бит/(Пиксели*Кадры) : 0.272
Размер потока : 8,44 Гбайт (94%)
Язык : English
Default : Да
Forced : Нет
Цветовой диапазон : Limited
Основные цвета : BT.709
Характеристики трансфера : BT.709
Коэффициенты матрицы : BT.709

Аудио #1
Идентификатор : 2
Формат : AC-3
Формат/Информация : Audio Coding 3
Идентификатор кодека : A_AC3
Продолжительность : 1 ч. 29 м.
Вид битрейта : Постоянный
Битрейт : 192 Кбит/сек
Каналы : 2 канала
Расположение каналов : Front: L R
Частота : 48,0 КГц
Частота кадров : 31,250 кадров/сек (1536 SPF)
Битовая глубина : 16 бит
Метод сжатия : С потерями
Размер потока : 123 Мбайт (1%)
Заголовок : AVO | А. Дольский
Язык : Russian
По умолчанию : Да
Принудительно : Нет

Аудио #2
Идентификатор : 3
Формат : AC-3
Формат/Информация : Audio Coding 3
Идентификатор кодека : A_AC3
Продолжительность : 1 ч. 29 м.
Вид битрейта : Постоянный
Битрейт : 224 Кбит/сек
Каналы : 2 канала
Расположение каналов : Front: L R
Частота : 48,0 КГц
Частота кадров : 31,250 кадров/сек (1536 SPF)
Битовая глубина : 16 бит
Метод сжатия : С потерями
Размер потока : 143 Мбайт (2%)
Заголовок : AVO | Л. Володарский
Язык : Russian
По умолчанию : Нет
Принудительно : Нет

Аудио #3
Идентификатор : 4
Формат : AC-3
Формат/Информация : Audio Coding 3
Идентификатор кодека : A_AC3
Продолжительность : 1 ч. 29 м.
Вид битрейта : Постоянный
Битрейт : 224 Кбит/сек
Каналы : 2 канала
Расположение каналов : Front: L R
Частота : 48,0 КГц
Частота кадров : 31,250 кадров/сек (1536 SPF)
Битовая глубина : 16 бит
Метод сжатия : С потерями
Размер потока : 143 Мбайт (2%)
Заголовок : Original
Язык : English
По умолчанию : Нет
Принудительно : Нет

Меню
00:00:00.000 : en:Chapter 01
00:10:01.921 : en:Chapter 02
00:20:01.937 : en:Chapter 03
00:30:02.787 : en:Chapter 04
00:40:03.053 : en:Chapter 05
00:50:03.520 : en:Chapter 06
01:00:04.287 : en:Chapter 07
01:10:04.803 : en:Chapter 08
01:20:05.537 : en:Chapter 09
• Исходник видео WEB-DL Amazon.

Сборка:


_________________
Проголосуй за трекер Открытый торрент трекер - RUS-MEDIA.ORG

Проголосуй Открытый торрент трекер - RUS-MEDIA.ORG


Вернуться к началу
 Профиль Отправить личное сообщение  
 
   Похожие торренты   Автор   Торрент   Размер 
В этой теме нет новых непрочитанных сообщений. Песнь тьмы / A Dark Song [Ужасы, драма, 2016] BDRip 1080p, Avo

salma3

0 | 0

7.96 ГБ

В этой теме нет новых непрочитанных сообщений. Ангел тьмы / Dark Angel [ужасы, фантастика, боевик, 1990] BDRip-HEVC 1080p, Mvo

salma3

0 | 0

8.8 ГБ

В этой теме нет новых непрочитанных сообщений. Эльвира - Повелительница тьмы / Elvira: Mistress of the Dark [Комедия, ужасы, мистика, 1988] BDRemux 1080p, Mvo

salma3

0 | 0

23.06 ГБ

В этой теме нет новых непрочитанных сообщений. Эльвира - Повелительница тьмы / Elvira: Mistress of the Dark [Комедия, ужасы, мистика, 1988] BDRip 1080p, Mvo

salma3

0 | 0

9.7 ГБ

В этой теме нет новых непрочитанных сообщений. Цвет из тьмы / Colour from the Dark [ужасы, 2008] DVDRip, Avo

salma3

50 | 2

1.37 ГБ

В этой теме нет новых непрочитанных сообщений. Песнь тьмы / A Dark Song [ужасы, драма, 2016] WEB-DLRip, Mvo

salma3

436 | 93

1.37 ГБ

В этой теме нет новых непрочитанных сообщений. Песнь тьмы / A Dark Song [ужасы, драма, 2016] WEB-DLRip 720p, Mvo

salma3

846 | 85

3.16 ГБ


Начать новую тему Ответить на тему  [ 1 сообщение ] 




Для Мосгорсуда, Роскомнадзора и рекламодателей:: mosgorsud-torrent[собачка]yandex.ru
cron