Торрент файл
скачать торрент магнет ссылка Добавлен: 22 мар 2018, 14:28
Размер: 5.79 ГБ
Сидеров: 0
Личеров: 0
Статус: (salma3)
Автор

СообщениеДобавлено: 22 мар 2018, 14:28 

Не в сети
Супермодератор
Аватара пользователя
Дата регистрации:
15 фев 2012, 16:44
Возраст: 28
Спасибо: 7223 / 2147
Сообщения: 67839
Год выхода: 2012
Жанр: триллер, криминал
Режиссер: Рой Чоу

В ролях: Ник Чунг, Саймон Ям, Дженис Мань, Кэй Тсе, Чи-Ён Чоу, Шон Доу, Юк-Кын Квок, Чи-Вай Лай, Майк Лидер, Цзя-Хуэй Лю

О фильме:
20 лет назад было совершенно страшное преступление: молодая девушка была изнасилована и жестоко убита в собственном доме. Убийца пойман на месте преступления и пожизненно отправлен в тюрьму. Но спустя 20 лет был освобождён досрочно. Сразу после его выхода не менее жестоко был убит отец девушки - известный музыкант. Стареющий и спивающийся инспектор Лам считает, что между двумя убийствами существует взаимосвязь.



Страна: Гонконг
Продолжительность: 01:47:29
Перевод: любительский одноголосный, закадровый [zamez]; любительский одноголосный, закадровый [den904]

Файл
Кодек: H.264
Качество: BDRip 720p
Видео: AVC, 1280x542 (2.35:1), 24 fps ~ 4305 Kbps
Звук:
DTS, 48 KHz, 6 ch ~ 1510 Kb/s (zamez)
AC3, 48 KHz, 6 ch ~ 384 Kb/s (den904)
DTS, 48 KHz, 6 ch ~ 1510 Kb/s (китайский)
Субтитры: русские, английские

Общее
Уникальный идентификатор : 200918694963403454379472771620510229918 (0x972788795ABEFC578334FAC10031E59E)
Полное имя : Q:TorFНАСТУПЛЕНИЕ НОЧИ (2xVO+SUB).2012.BluRay.720p.DTS.x264-lord_i_74.mkv
Формат : Matroska
Версия формата : Version 2
Размер файла : 5,79 Гбайт
Продолжительность : 1 ч. 47 м.
Общий поток : 7707 Кбит/сек
Дата кодирования : UTC 2012-07-12 08:10:55
Программа кодирования : mkvmerge v5.0.1 ('Es ist Sommer') built on Oct 9 2011 11:55:43
Библиотека кодирования : libebml v1.2.2 + libmatroska v1.3.0

Видео
Идентификатор : 1
Формат : AVC
Формат/Информация : Advanced Video Codec
Профиль формата : [email protected]
Параметр CABAC формата : Да
Параметр ReFrames формата : 12 кадров
Идентификатор кодека : V_MPEG4/ISO/AVC
Продолжительность : 1 ч. 47 м.
Битрейт : 4305 Кбит/сек
Ширина : 1280 пикселей
Высота : 542 пикселя
Соотношение сторон : 2,35:1
Частота кадров : 24,000 кадра/сек
Цветовое пространство : YUV
Субдискретизация насыщенности : 4:2:0
Битовая глубина : 8 бит
Тип развёртки : Прогрессивная
Бит/(Пиксели*Кадры) : 0.259
Размер потока : 3,12 Гбайт (54%)
Заголовок : Nightfall.2012.BluRay.720p.DTS.x264-CHD
Библиотека кодирования : x264 core 120 r2146 bcd41db
Настройки программы : cabac=1 / ref=12 / deblock=1:-3:-3 / analyse=0x3:0x113 / me=umh / subme=10 / psy=1 / psy_rd=1.10:0.15 / mixed_ref=1 / me_range=32 / chroma_me=1 / trellis=2 / 8x8dct=1 / cqm=0 / deadzone=21,11 / fast_pskip=0 / chroma_qp_offset=-2 / threads=12 / sliced_threads=0 / nr=0 / decimate=1 / interlaced=0 / bluray_compat=0 / constrained_intra=0 / bframes=6 / b_pyramid=2 / b_adapt=2 / b_bias=0 / direct=3 / weightb=1 / open_gop=0 / weightp=2 / keyint=250 / keyint_min=24 / scenecut=40 / intra_refresh=0 / rc_lookahead=60 / rc=2pass / mbtree=0 / bitrate=4305 / ratetol=1.0 / qcomp=0.60 / qpmin=0 / qpmax=69 / qpstep=4 / cplxblur=20.0 / qblur=0.5 / vbv_maxrate=40000 / vbv_bufsize=30000 / nal_hrd=none / ip_ratio=1.40 / pb_ratio=1.30 / aq=1:0.80
Язык : Chinese
Default : Да
Forced : Нет

Аудио #1
Идентификатор : 2
Формат : DTS
Формат/Информация : Digital Theater Systems
Идентификатор кодека : A_DTS
Продолжительность : 1 ч. 47 м.
Вид битрейта : Постоянный
Битрейт : 1510 Кбит/сек
Каналы : 6 каналов
Расположение каналов : Front: L C R, Side: L R, LFE
Частота : 48,0 КГц
Битовая глубина : 24 бит
Метод сжатия : С потерями
Размер потока : 1,13 Гбайт (20%)
Заголовок : VO ZameZ по переводу Вячеслава "Умный Веник" Пашковского
Язык : Russian
Default : Да
Forced : Нет

Аудио #2
Идентификатор : 3
Формат : AC-3
Формат/Информация : Audio Coding 3
Расширение режима : CM (complete main)
Идентификатор кодека : A_AC3
Продолжительность : 1 ч. 47 м.
Вид битрейта : Постоянный
Битрейт : 384 Кбит/сек
Каналы : 6 каналов
Расположение каналов : Front: L C R, Side: L R, LFE
Частота : 48,0 КГц
Битовая глубина : 16 бит
Метод сжатия : С потерями
Размер потока : 295 Мбайт (5%)
Заголовок : VO den904 по переводу Skyworker
Язык : Russian
Default : Нет
Forced : Нет

Аудио #3
Идентификатор : 4
Формат : DTS
Формат/Информация : Digital Theater Systems
Идентификатор кодека : A_DTS
Продолжительность : 1 ч. 47 м.
Вид битрейта : Постоянный
Битрейт : 1510 Кбит/сек
Каналы : 6 каналов
Расположение каналов : Front: L C R, Side: L R, LFE
Частота : 48,0 КГц
Битовая глубина : 24 бит
Метод сжатия : С потерями
Размер потока : 1,13 Гбайт (20%)
Заголовок : Cantonese dts 5.1 1536kbps
Язык : Chinese
Default : Нет
Forced : Нет

Текст #1
Идентификатор : 5
Формат : UTF-8
Идентификатор кодека : S_TEXT/UTF8
Идентификатор кодека/Информация : UTF-8 Plain Text
Заголовок : sub Вячеслав "Умный Веник" Пашковский
Язык : Russian
Default : Нет
Forced : Нет

Текст #2
Идентификатор : 6
Формат : UTF-8
Идентификатор кодека : S_TEXT/UTF8
Идентификатор кодека/Информация : UTF-8 Plain Text
Заголовок : sub
Язык : English
Default : Нет
Forced : Нет


_________________
Проголосуй за трекер Открытый торрент трекер - RUS-MEDIA.ORG

Проголосуй Открытый торрент трекер - RUS-MEDIA.ORG


Вернуться к началу
 Профиль Отправить личное сообщение  
 
   Похожие торренты   Автор   Торрент   Размер 
В этой теме нет новых непрочитанных сообщений. Закон ночи / Live by Night [Драма, криминал, 2016] BDRip 720p, Dub+Sub [iTunes]

salma3

476 | 544

5.66 ГБ

В этой теме нет новых непрочитанных сообщений. Под покровом ночи / Nocturnal Animals [триллер, драма, 2016] BDRip 720p, Dub+Sub [Лицензия]

salma3

594 | 640

6.72 ГБ

В этой теме нет новых непрочитанных сообщений. 30 дней ночи / 30 Days of Night [ужасы, триллер, драма, 2007] BDRip 720p, Dub

salma3

0 | 1

5.75 ГБ

В этой теме нет новых непрочитанных сообщений. Убей их всех / Kill 'em All [Боевик, триллер, криминал, 2012] BDRip 720p, Dvo [НТВ+]

salma3

69 | 36

3.75 ГБ

В этой теме нет новых непрочитанных сообщений. Контрабанда / Contraband [боевик, триллер, драма, криминал, 2012] BDRip 720p, Dub+Avo+Sub

salma3

108 | 33

7.63 ГБ

В этой теме нет новых непрочитанных сообщений. Под покровом ночи / В холоде ночи / In The Cold Of The Night [Триллер, мелодрама, детектив, 1990] DVDRip, Avo

salma3

21 | 7

1.45 ГБ

В этой теме нет новых непрочитанных сообщений. Закон ночи / Live by Night [драма, криминал, 2016] BDRip, Dub+Sub [Лицензия]

salma3

337 | 163

2.18 ГБ


Начать новую тему Ответить на тему  [ 1 сообщение ] 




Для Мосгорсуда, Роскомнадзора и рекламодателей:: mosgorsud-torrent[собачка]yandex.ru
cron