Торрент файл
скачать торрент магнет ссылка Добавлен: 01 мар 2018, 12:09
Размер: 3.11 ГБ
Сидеров: 14
Личеров: 2
Статус: (salma3)
Автор

СообщениеДобавлено: 01 мар 2018, 12:09 

Не в сети
Супермодератор
Аватара пользователя
Дата регистрации:
15 фев 2012, 16:44
Возраст: 28
Спасибо: 7290 / 2147
Сообщения: 70562
Год выпуска: 2017
Жанр: Драма
Режиссер: Себастьян Лелио

В ролях: Франсиско Рейесб Луис Ньекко, Алина Кюппенхейм, Николас Сааведра, Ампаро Ногера, Тринидад Гонзалес, Нестор Кантильяна, Алехандро Гойк, Антония Сехерс

О фильме:
Когда-то Марину звали Даниэль, и она была мужчиной. Но как бы она ни менялась внешне, внутри она все равно женщина. И через десять дней она отправится со своим возлюбленным, Орландо Онетто, на водопады Игуасу. Жизнь вносит свои коррективы: Орландо просыпается с сильной головной болью, Марина успевает довезти его в больницу, но оказывается поздно. Орландо мертв, а Марину подозревают в его смерти. С этого момента для женщины начинается череда унижений.



Страна: Чили, Германия, Испания, США
Продолжительность: 01:48:05
Перевод: Любительский [многоголосый] [GreenРай Studio]

Файл
Кодек: x264
Качество: WEBRip 720p
Видео: 4000 Кбит/с, 1280x536, 24.000 fps
Звук: Русский (AC3, 2 ch, 384 Кбит/с)

имеется реклама


General
Unique ID : 214431042731560710633014060503056396518 (0xA151EAA7A094D760A8DA6453780E30E6)
Complete name : E:GreenRayA.Fantastic.Woman.2017.P.WEBRip.720p.mkv
Format : Matroska
Format version : Version 4 / Version 2
File size : 3.11 GiB
Duration : 1 h 44 min
Overall bit rate mode : Constant
Overall bit rate : 4 273 kb/s
Encoded date : UTC 2018-02-25 10:27:59
Writing application : mkvmerge v6.5.0 ('Isn't she lovely') built on Oct 20 2013 12:50:05
Writing library : libebml v1.3.0 + libmatroska v1.4.1

Video
ID : 1
Format : AVC
Format/Info : Advanced Video Codec
Format profile : [email protected]
Format settings : CABAC / 3 Ref Frames
Format settings, CABAC : Yes
Format settings, ReFrames : 3 frames
Format settings, GOP : M=4, N=15
Codec ID : V_MPEG4/ISO/AVC
Duration : 1 h 44 min
Bit rate mode : Constant
Bit rate : 3 804 kb/s
Nominal bit rate : 4 000 kb/s
Width : 1 280 pixels
Height : 536 pixels
Display aspect ratio : 2.40:1
Frame rate mode : Constant
Frame rate : 24.000 FPS
Standard : NTSC
Color space : YUV
Chroma subsampling : 4:2:0
Bit depth : 8 bits
Scan type : Progressive
Bits/(Pixel*Frame) : 0.231
Stream size : 2.77 GiB (89%)
Language : English
Default : Yes
Forced : No
Color range : Limited

Audio
ID : 2
Format : AC-3
Format/Info : Audio Coding 3
Codec ID : A_AC3
Duration : 1 h 44 min
Bit rate mode : Constant
Bit rate : 384 kb/s
Channel(s) : 2 channels
Channel positions : Front: L R
Sampling rate : 48.0 kHz
Frame rate : 31.250 FPS (1536 SPF)
Bit depth : 16 bits
Compression mode : Lossy
Stream size : 287 MiB (9%)
Service kind : Complete Main
Default : Yes
Forced : No



Релиз от:


_________________
Проголосуй за трекер Открытый торрент трекер - RUS-MEDIA.ORG

Проголосуй Открытый торрент трекер - RUS-MEDIA.ORG


Вернуться к началу
 Профиль Отправить личное сообщение  
 
   Похожие торренты   Автор   Торрент   Размер 
В этой теме нет новых непрочитанных сообщений. Фантастическая женщина / Una mujer fantástica [Драма, 2017] WEBRip, Mvo [GreenРай Studio]

salma3

17 | 7

1.37 ГБ

В этой теме нет новых непрочитанных сообщений. Стоянка / The Layover [комедия, 2017] WEBRip 720p, Mvo [GreenРай Studio]

salma3

0 | 0

1.34 ГБ

В этой теме нет новых непрочитанных сообщений. Ана, любовь моя / Ana, mon amour [драма, мелодрама, 2017] WEBRip 720p, Mvo [GreenРай Studio]

salma3

0 | 0

3.08 ГБ

В этой теме нет новых непрочитанных сообщений. Цирк уродов / Freak Show (2017) WEBRip 720p, Mvo [GreenРай Studio]

salma3

13 | 6

2.82 ГБ

В этой теме нет новых непрочитанных сообщений. Храм / Temple [ужасы, триллер, 2017] WEBRip 720p, Mvo [GreenРай Studio]

salma3

0 | 0

1.73 ГБ

В этой теме нет новых непрочитанных сообщений. Голодные Z / Les affames [ужасы, драма, 2017] WEBRip 720p, Mvo [GreenРай Studio]

salma3

1 | 1

2.91 ГБ

В этой теме нет новых непрочитанных сообщений. Секс гарантирован / Sex Guaranteed [комедия, 2017] WEBRip 720p, Mvo [GreenРай Studio]

salma3

0 | 1

1.27 ГБ


Начать новую тему Ответить на тему  [ 1 сообщение ] 




Для Мосгорсуда, Роскомнадзора и рекламодателей:: mosgorsud-torrent[собачка]yandex.ru
cron