Торрент файл
скачать торрент магнет ссылка Добавлен: 21 фев 2018, 21:39
Размер: 3.63 ГБ
Сидеров: 0
Личеров: 0
Статус: (salma3)
Автор

СообщениеДобавлено: 21 фев 2018, 21:39 

Не в сети
Супермодератор
Аватара пользователя
Дата регистрации:
15 фев 2012, 16:44
Возраст: 28
Спасибо: 7290 / 2147
Сообщения: 70562
Год выхода: 2018
Жанр: триллер
Режиссер: Тим Хантер

В ролях: Николас Кейдж, Робин Танни, Марк Блукас, Эрни Лайвли, Жак Грэй, Конуэй, Билл Болендер, Джейсон К. Уиксом и другие

О фильме:
Рэй с женой купили уединенный мотель в пустыне в надежде начать жизнь с чистого листа. Но мирная и размеренная жизнь постепенно начинает трещать по швам, когда Рэй обнаруживает двойное зеркало, через которое можно увидеть всё, что происходит в одном из номеров. И когда в мотеле пропадает постоялица, то подозрение падает на владельцев.



Страна: Канада, США, Kirk Shaw Productions
Продолжительность: 01:44:09
Перевод: Любительский (двухголосый закадровый) | HiWayGrope

Файл
Кодек: MPEG-4 AVC/H.264
Качество: WEBRip 720p
Видео: 1280x720, 23.976 fps, ~4501 kbps avg, 0.204 bit/pixel
Аудио rus: AC3, 48 kHz, 6 ch, 384 Kbps

Реклама: присутствует

Присутствует ненормативная лексика

Семпл

General
Unique ID : 201378381613259769458437352259488822357 (0x978010C6950194E1AD4E7291F713B455)
Complete name : E:Looking.Glass.2018.720p.WEBRip.HiWayGropeLooking.Glass.2018.720p.WEBRip.HiWayGrope.mkv
Format : Matroska
Format version : Version 4 / Version 2
File size : 3.63 GiB
Duration : 1h 44mn
Overall bit rate : 4 984 Kbps
Encoded date : UTC 2018-02-21 14:45:15
Writing application : mkvmerge v18.0.0 ('Apricity') 64-bit
Writing library : libebml v1.3.5 + libmatroska v1.4.8

Video
ID : 1
Format : AVC
Format/Info : Advanced Video Codec
Format profile : [email protected]
Format settings, CABAC : Yes
Format settings, ReFrames : 3 frames
Codec ID : V_MPEG4/ISO/AVC
Duration : 1h 44mn
Bit rate : 4 501 Kbps
Width : 1 280 pixels
Height : 720 pixels
Display aspect ratio : 16:9
Frame rate mode : Constant
Frame rate : 23.976 (24000/1001) fps
Standard : NTSC
Color space : YUV
Chroma subsampling : 4:2:0
Bit depth : 8 bits
Scan type : Progressive
Bits/(Pixel*Frame) : 0.204
Stream size : 3.27 GiB (90%)
Language : English
Default : Yes
Forced : No
Color range : Limited
Color primaries : BT.709
Transfer characteristics : BT.709
Matrix coefficients : BT.709

Audio
ID : 2
Format : AC-3
Format/Info : Audio Coding 3
Mode extension : CM (complete main)
Format settings, Endianness : Big
Codec ID : A_AC3
Duration : 1h 44mn
Bit rate mode : Constant
Bit rate : 384 Kbps
Channel(s) : 6 channels
Channel positions : Front: L C R, Side: L R, LFE
Sampling rate : 48.0 KHz
Frame rate : 31.250 fps (1536 spf)
Compression mode : Lossy
Stream size : 286 MiB (8%)
Title : rus
Language : Russian
Default : Yes
Forced : No



Релиз от: HiWayGrope


_________________
Проголосуй за трекер Открытый торрент трекер - RUS-MEDIA.ORG

Проголосуй Открытый торрент трекер - RUS-MEDIA.ORG


Вернуться к началу
 Профиль Отправить личное сообщение  
 
   Похожие торренты   Автор   Торрент   Размер 
В этой теме нет новых непрочитанных сообщений. Зеркало / Looking Glass [Триллер, 2018] WEBRip 720p, Mvo

salma3

0 | 1

3.51 ГБ

В этой теме нет новых непрочитанных сообщений. Зеркало / Looking Glass [триллер, 2018] WEBRip, Dvo

salma3

0 | 0

1.49 ГБ

В этой теме нет новых непрочитанных сообщений. Зеркало / Looking Glass [Триллер, 2018] WEBRip, Mvo

salma3

0 | 0

699.14 МБ

В этой теме нет новых непрочитанных сообщений. Зеркало / Looking Glass [триллер, 2018] BDRip 720p, Mvo

salma3

0 | 0

3.35 ГБ

В этой теме нет новых непрочитанных сообщений. Черное зеркало / Black Mirror [S01-04] [Фантастика, триллер, драма, 2011-2017] WEBRip 720p, Mvo [LostFilm]

salma3

96 | 231

32.64 ГБ

В этой теме нет новых непрочитанных сообщений. [DigitalPlayground.com] Jasmine Jae & Olive Glass (Masked Munchers / 26.02.2018) [2018 г., 69, Scissoring, Big Tits, Lesbian, Dildo, Sex Toys, Face Sitting, Pussy Licking, 720p]

salma3

0 | 1

1.31 ГБ

В этой теме нет новых непрочитанных сообщений. Зеркало, зеркало / Mirror Mirror [ужасы, триллер, 1990] DVDRip, Dvo [НТВ]

salma3

0 | 0

1.46 ГБ


Начать новую тему Ответить на тему  [ 1 сообщение ] 




Для Мосгорсуда, Роскомнадзора и рекламодателей:: mosgorsud-torrent[собачка]yandex.ru
cron