Торрент файл
скачать торрент магнет ссылка Добавлен: 24 янв 2018, 16:39
Размер: 4.33 ГБ
Сидеров: 0
Личеров: 0
Статус: (salma3)
Автор

СообщениеДобавлено: 24 янв 2018, 16:39 

Не в сети
Супермодератор
Аватара пользователя
Дата регистрации:
15 фев 2012, 16:44
Возраст: 28
Спасибо: 7285 / 2147
Сообщения: 70259
Год выхода: 2017
Жанр: драма, мелодрама
Режиссер: Ильдико Эньеди

В ролях: Геза Морчани, Александра Борбей, Золтан Шнайдер, Эрвин Надь, Тамаш Йордан, Жужа Яро, Река Тенки, Юлия Ньяко, Итала Бекеш, Эва Бата

О фильме:
Сторонящаяся людей Мария и общительный, но одинокий Эндре — коллеги. Оба ведут замкнутый образ жизни и стараются избегать общения друг с другом. Неожиданно для себя они узнают, что каждую ночь им снятся одинаковые сны. Видя в этом некий знак, герои решаются на сближение. Открывшись друг другу, Эндре и Мария окажутся в водовороте комических и даже шокирующих событий…



Страна: Венгрия
Продолжительность: 01:55:54
Перевод: Профессиональный (многоголосый, закадровый) | iTunes

Файл
Качество: BDRip 1080p
Видео: MPEG-4 AVC, 3448 kb/s, 1920x808
Звук#1: Russian: AC3, 384 kb/s (6 ch)
Звук#2: German: DTS, 1509 kb/s (6 ch)

Общее
Уникальный идентификатор : 179605156835817537557816150474458678912 (0x871EB1E9A96E28118372381404944680)
Полное имя : C:UsersВDownloadsVideo\0.t3L3.i.duW3.2O17.P.BDRip.1O8Op.mkv
Формат : Matroska
Версия формата : Version 2
Размер файла : 4,33 Гбайт
Продолжительность : 1 ч. 55 м.
Общий поток : 5343 Кбит/сек
Дата кодирования : UTC 2018-01-23 17:34:19
Программа кодирования : mkvmerge v8.3.0 ('Over the Horizon') 64bit
Библиотека кодирования : libebml v1.3.1 + libmatroska v1.4.2

Видео
Идентификатор : 1
Формат : AVC
Формат/Информация : Advanced Video Codec
Профиль формата : [email protected]
Параметр CABAC формата : Да
Параметр ReFrames формата : 5 кадров
Идентификатор кодека : V_MPEG4/ISO/AVC
Продолжительность : 1 ч. 55 м.
Битрейт : 3448 Кбит/сек
Ширина : 1920 пикселей
Высота : 808 пикселей
Соотношение сторон : 2,40:1
Режим частоты кадров : Постоянный
Частота кадров : 24,000 кадра/сек
Цветовое пространство : YUV
Субдискретизация насыщенности : 4:2:0
Битовая глубина : 8 бит
Тип развёртки : Прогрессивная
Бит/(Пиксели*Кадры) : 0.093
Размер потока : 2,79 Гбайт (65%)
Заголовок : encounters-kounse_1080p
Библиотека кодирования : x264 core 155 r2893 b00bcaf
Настройки программы : cabac=1 / ref=5 / deblock=1:-1:-1 / analyse=0x3:0x133 / me=umh / subme=7 / psy=1 / psy_rd=1.00:0.15 / mixed_ref=1 / me_range=16 / chroma_me=1 / trellis=1 / 8x8dct=1 / cqm=0 / deadzone=21,11 / fast_pskip=0 / chroma_qp_offset=-3 / threads=24 / lookahead_threads=4 / sliced_threads=0 / nr=0 / decimate=1 / interlaced=0 / bluray_compat=0 / constrained_intra=0 / bframes=3 / b_pyramid=2 / b_adapt=1 / b_bias=0 / direct=1 / weightb=1 / open_gop=0 / weightp=2 / keyint=250 / keyint_min=24 / scenecut=40 / intra_refresh=0 / rc_lookahead=40 / rc=crf / mbtree=1 / crf=20.0 / qcomp=0.60 / qpmin=0 / qpmax=69 / qpstep=4 / ip_ratio=1.40 / aq=1:1.00
Default : Да
Forced : Нет

Аудио #1
Идентификатор : 2
Формат : AC-3
Формат/Информация : Audio Coding 3
Расширение режима : CM (complete main)
Параметр Endianness формата : Big
Идентификатор кодека : A_AC3
Продолжительность : 1 ч. 55 м.
Вид битрейта : Постоянный
Битрейт : 384 Кбит/сек
Каналы : 6 каналов
Расположение каналов : Front: L C R, Side: L R, LFE
Частота : 48,0 КГц
Частота кадров : 31,250 кадров/сек (1536 spf)
Битовая глубина : 16 бит
Метод сжатия : С потерями
Размер потока : 318 Мбайт (7%)
Язык : Russian
Default : Да
Forced : Нет

Аудио #2
Идентификатор : 3
Формат : DTS
Формат/Информация : Digital Theater Systems
Режим : 16
Параметр Endianness формата : Big
Идентификатор кодека : A_DTS
Продолжительность : 1 ч. 55 м.
Вид битрейта : Постоянный
Битрейт : 1509 Кбит/сек
Каналы : 6 каналов
Расположение каналов : Front: L C R, Side: L R, LFE
Частота : 48,0 КГц
Частота кадров : 93,750 кадра/сек (512 spf)
Битовая глубина : 24 бит
Метод сжатия : С потерями
Размер потока : 1,22 Гбайт (28%)
Заголовок : German DTS 5.1 @ 1 509 Kbps
Язык : German
Default : Нет
Forced : Нет

Меню
00:00:00.000 : en:00:00:00.000
00:09:02.208 : en:00:09:02.208
00:18:00.833 : en:00:18:00.833
00:26:59.750 : en:00:26:59.750
00:36:25.417 : en:00:36:25.417
00:45:04.750 : en:00:45:04.750
00:55:45.125 : en:00:55:45.125
01:04:59.292 : en:01:04:59.292
01:13:50.583 : en:01:13:50.583
01:23:13.583 : en:01:23:13.583
01:32:30.625 : en:01:32:30.625
01:40:19.083 : en:01:40:19.083
01:51:40.417 : en:01:51:40.417




_________________
Проголосуй за трекер Открытый торрент трекер - RUS-MEDIA.ORG

Проголосуй Открытый торрент трекер - RUS-MEDIA.ORG


Вернуться к началу
 Профиль Отправить личное сообщение  
 
   Похожие торренты   Автор   Торрент   Размер 
В этой теме нет новых непрочитанных сообщений. О теле и душе / Testről és Lélekről [Драма, мелодрама, 2017] BDRip 1080p, Mvo [iTunes]

salma3

10 | 5

4.36 ГБ

В этой теме нет новых непрочитанных сообщений. О теле и душе / Testről és Lélekről [драма, мелодрама, 2017] WEB-DL 1080p, Mvo [iTunes]

salma3

703 | 39

3.97 ГБ

В этой теме нет новых непрочитанных сообщений. О теле и душе / Testről és Lélekről [драма, мелодрама, 2017] BDRip 720p, Mvo [iTunes]

salma3

0 | 0

2.51 ГБ

В этой теме нет новых непрочитанных сообщений. Весь этот мир / Everything, Everything [драма, мелодрама, 2017] BDRip 1080p, Dub [iTunes]

salma3

195 | 145

11.1 ГБ

В этой теме нет новых непрочитанных сообщений. Весь этот мир / Everything, Everything [драма, мелодрама, 2017] BDRip 1080p, Dub [iTunes]

salma3

546 | 247

3.28 ГБ

В этой теме нет новых непрочитанных сообщений. Тельма / Thelma [Триллер, драма, мелодрама, 2017] BDRip 1080p, Dub [iTunes]

salma3

31 | 25

10.82 ГБ

В этой теме нет новых непрочитанных сообщений. Орбита 9 / Órbita 9 [Фантастика, Драма, Мелодрама, 2017] BDRip 1080p, Dub [iTunes]

salma3

0 | 0

7.86 ГБ


Начать новую тему Ответить на тему  [ 1 сообщение ] 




Для Мосгорсуда, Роскомнадзора и рекламодателей:: mosgorsud-torrent[собачка]yandex.ru
cron