Торрент файл
скачать торрент магнет ссылка Добавлен: 04 дек 2017, 17:54
Размер: 6.03 ГБ
Сидеров: 0
Личеров: 0
Статус: (salma3)
Автор

СообщениеДобавлено: 04 дек 2017, 17:54 

Не в сети
Супермодератор
Аватара пользователя
Дата регистрации:
15 фев 2012, 16:44
Возраст: 28
Спасибо: 7224 / 2147
Сообщения: 68058
Год выхода: 1988
Жанр:Боевик, триллер, криминал
Режиссер: Бадди Ван Хорн

В ролях: Клинт Иствуд, Патришия Кларксон, Лиам Нисон, Джим Керри, Ивэн С. Ким, Дэвид Хант, Майкл Карри, Майкл Гудвин, Дарвин Джиллетт, Энтони Чарнота, Кристофер П. Бил, Патрик Ван Хорн, Скотт Вэнс, Карен Кан, Шон Эллиотт, Луис Гьямбалво, Ллойд Нельсон, Чарльз Мартине, Тейлор Гилберт, Джордж Оррисон, Марк Алаймо, Джастин Уэйлин, Джеймс В. Гэвин, Крэйг Хоскин

О фильме:
Пятый фильм о "Грязном Гарри" рассказывает о том, как инспектор Кэллахэн (Клинт Иствуд) расследует жутковатое дело, связанное со списком жертв. Джонни Скуэрес (Джим Керри), рок-певец и наркоман, найден мертвым от передозировки, но есть подозрение, что это было убийство. Грязному Гарри поручают вести расследование. Гарри обнаруживает, группу людей, которые убивают людей согласно "Списку Мертвецов". Некоторые из них уже убиты, а другим угрожает смерть... Великолепная игра Иствуда поднимает боевик на уровень гораздо выше среднего, и смотрится он с неослабным напряжением.



Страна: США
Продолжительность: 01:31:13
Перевод: Профессиональный (дублированный) студия "Варус-Видео"
Перевод 2: Профессиональный (многоголосый закадровый)
Перевод 3: Украинский: Профессиональный (многоголосый закадровый) К1
Перевод 4: Авторский (одноголосый закадровый) А.Гаврилов
Оригинальная аудиодорожка: английский

Файл
Кодек: MPEG-4 AVC
Качество: BDRip 720p
Видео: 1280x720 (16:9), 23.976 fps, AVC, ~7000 Kbps, 0.317 bits/pixel
Аудио: Russian, 48.0 KHz, AC3, 2 ch, 192 Kbps - Дубляж - студия "Варус-Видео"
Аудио 2: Russian, 48.0 KHz, AC3, 2 ch, 192 Kbps - Многоголосый закадровый
Аудио 3: Ukrainian, 48.0 KHz, AC3, 2 ch, 192 Kbps - Многоголосый закадровый - К1
Аудио 4: Russian, 48.0 KHz, AC3, 6 ch, 384 Kbps - Гаврилов
Аудио 5: English, 48.0 KHz, DTS, 6 ch, 1510 Kbps - DTS 1536 kbit/s
Формат субтитров: softsub (SRT)
Общее
Уникальный идентификатор : 200518210070093506252682624317474005223 (0x96DA670B58D8A0FE86AFA50571C4E0E7)
Полное имя : D:The.Dead.Pool.1988.720p.BDRip.x264.3xRus.Ukr.Eng.mkv
Формат : Matroska
Версия формата : Version 4 / Version 2
Размер файла : 6,03 Гбайт
Продолжительность : 1 ч. 31 м.
Общий поток : 9459 Кбит/сек
Дата кодирования : UTC 2017-12-04 09:43:32
Программа кодирования : mkvmerge v7.9.0 ('Birds') 64bit
Библиотека кодирования : libebml v1.3.1 + libmatroska v1.4.2

Видео
Идентификатор : 1
Формат : AVC
Формат/Информация : Advanced Video Codec
Профиль формата : [email protected]
Параметр CABAC формата : Да
Параметр RefFrames формата : 9 кадров
Идентификатор кодека : V_MPEG4/ISO/AVC
Продолжительность : 1 ч. 31 м.
Битрейт : 7000 Кбит/сек
Ширина : 1280 пикселей
Высота : 720 пикселей
Соотношение сторон : 16:9
Режим частоты кадров : Постоянный
Частота кадров : 23,976 кадра/сек
Цветовое пространство : YUV
Субдискретизация насыщенности : 4:2:0
Битовая глубина : 8 бит
Тип развёртки : Прогрессивная
Бит/(Пиксели*Кадры) : 0.317
Размер потока : 4,46 Гбайт (74%)
Библиотека кодирования : x264 core 130 r2273 b3065e6
Настройки программы : cabac=1 / ref=9 / deblock=1:-3:-2 / analyse=0x3:0x133 / me=umh / subme=11 / psy=1 / psy_rd=1.00:0.20 / mixed_ref=1 / me_range=48 / chroma_me=1 / trellis=2 / 8x8dct=1 / cqm=0 / deadzone=21,11 / fast_pskip=0 / chroma_qp_offset=-3 / threads=6 / lookahead_threads=1 / sliced_threads=0 / nr=0 / decimate=0 / interlaced=0 / bluray_compat=0 / constrained_intra=0 / bframes=8 / b_pyramid=2 / b_adapt=2 / b_bias=0 / direct=3 / weightb=1 / open_gop=0 / weightp=2 / keyint=240 / keyint_min=23 / scenecut=40 / intra_refresh=0 / rc=2pass / mbtree=0 / bitrate=7000 / ratetol=1.0 / qcomp=0.60 / qpmin=0 / qpmax=69 / qpstep=4 / cplxblur=20.0 / qblur=0.5 / ip_ratio=1.40 / pb_ratio=1.30 / aq=1:1.00
Язык : English
Default : Да
Forced : Нет

Аудио #1
Идентификатор : 2
Формат : AC-3
Формат/Информация : Audio Coding 3
Параметр Endianness формата : Big
Идентификатор кодека : A_AC3
Продолжительность : 1 ч. 28 м.
Вид битрейта : Постоянный
Битрейт : 192 Кбит/сек
Каналы : 2 канала
Расположение каналов : Front: L R
Частота : 48,0 КГц
Частота кадров : 31,250 кадров/сек (1536 SPF)
Битовая глубина : 16 бит
Метод сжатия : С потерями
Размер потока : 122 Мбайт (2%)
Заголовок : Дубляж - студия "Варус-Видео"
Язык : Russian
ServiceKind/String : Complete Main
Default : Да
Forced : Нет

Аудио #2
Идентификатор : 3
Формат : AC-3
Формат/Информация : Audio Coding 3
Режим : Dolby Digital
Параметр Endianness формата : Big
Идентификатор кодека : A_AC3
Продолжительность : 1 ч. 28 м.
Вид битрейта : Постоянный
Битрейт : 192 Кбит/сек
Каналы : 2 канала
Расположение каналов : Front: L R
Частота : 48,0 КГц
Частота кадров : 31,250 кадров/сек (1536 SPF)
Битовая глубина : 16 бит
Метод сжатия : С потерями
Размер потока : 122 Мбайт (2%)
Заголовок : Многоголосый закадровый
Язык : Russian
ServiceKind/String : Complete Main
Default : Нет
Forced : Нет

Аудио #3
Идентификатор : 4
Формат : AC-3
Формат/Информация : Audio Coding 3
Параметр Endianness формата : Big
Идентификатор кодека : A_AC3
Продолжительность : 1 ч. 31 м.
Вид битрейта : Постоянный
Битрейт : 192 Кбит/сек
Каналы : 2 канала
Расположение каналов : Front: L R
Частота : 48,0 КГц
Частота кадров : 31,250 кадров/сек (1536 SPF)
Битовая глубина : 16 бит
Метод сжатия : С потерями
Размер потока : 125 Мбайт (2%)
Заголовок : Многоголосый закадровый - К1
Язык : Ukrainian
ServiceKind/String : Complete Main
Default : Нет
Forced : Нет

Аудио #4
Идентификатор : 5
Формат : AC-3
Формат/Информация : Audio Coding 3
Параметр Endianness формата : Big
Идентификатор кодека : A_AC3
Продолжительность : 1 ч. 31 м.
Вид битрейта : Постоянный
Битрейт : 384 Кбит/сек
Каналы : 6 каналов
Расположение каналов : Front: L C R, Side: L R, LFE
Частота : 48,0 КГц
Частота кадров : 31,250 кадров/сек (1536 SPF)
Битовая глубина : 16 бит
Метод сжатия : С потерями
Размер потока : 251 Мбайт (4%)
Заголовок : Гаврилов
Язык : Russian
ServiceKind/String : Complete Main
Default : Нет
Forced : Нет

Аудио #5
Идентификатор : 6
Формат : DTS
Формат/Информация : Digital Theater Systems
Режим : 16
Параметр Endianness формата : Big
Идентификатор кодека : A_DTS
Продолжительность : 1 ч. 31 м.
Вид битрейта : Постоянный
Битрейт : 1510 Кбит/сек
Каналы : 6 каналов
Расположение каналов : Front: L C R, Side: L R, LFE
Частота : 48,0 КГц
Частота кадров : 93,750 кадра/сек (512 SPF)
Битовая глубина : 24 бит
Метод сжатия : С потерями
Размер потока : 985 Мбайт (16%)
Заголовок : DTS 1536 кб/c
Язык : English
Default : Нет
Forced : Нет

Текст
Идентификатор : 7
Формат : UTF-8
Идентификатор кодека : S_TEXT/UTF8
Идентификатор кодека/Информация : UTF-8 Plain Text
Продолжительность : 1 ч. 26 м.
Битрейт : 52 бит/сек
ElementCount : 926
Размер потока : 33,3 Кбайт (0%)
Язык : English
Default : Нет
Forced : Нет

Меню
00:00:00.000 : ru:1 глава
00:10:00.000 : ru:2 глава
00:20:00.000 : ru:3 глава
00:30:00.000 : ru:4 глава
00:40:00.000 : ru:5 глава
00:50:00.000 : ru:6 глава
01:00:00.000 : ru:7 глава
01:10:00.000 : ru:8 глава
01:20:00.000 : ru:9 глава






Релиз от:
Автор рипа: Painter
За исходник спасибо Marchik60
за аудио 1 спасибо Lem
За постер к раздаче спасибо Media-Art-Club


_________________
Проголосуй за трекер Открытый торрент трекер - RUS-MEDIA.ORG

Проголосуй Открытый торрент трекер - RUS-MEDIA.ORG


Вернуться к началу
 Профиль Отправить личное сообщение  
 
   Похожие торренты   Автор   Торрент   Размер 
В этой теме нет новых непрочитанных сообщений. Грязный Гарри 5: Игра в смерть / The Dead Pool [боевик, триллер, криминал, 1988] BDRip 1080p, Dub

salma3

25 | 6

9.87 ГБ

В этой теме нет новых непрочитанных сообщений. Грязный Гарри / Dirty Harry [боевик, триллер, криминал, 1971] BDRip 720p, Mvo

salma3

11 | 2

4.28 ГБ

В этой теме нет новых непрочитанных сообщений. Грязный маленький секрет / Dirty Little Secret [триллер, криминал, 1998] VHSRip, Dvo

salma3

2 | 6

1.46 ГБ

В этой теме нет новых непрочитанных сообщений. Смерть зимой / Dead of Winter [ужасы, триллер, драма, 1987] BDRip 720p, Mvo=Dvo+Avo+Sub

salma3

42 | 33

5.6 ГБ

В этой теме нет новых непрочитанных сообщений. Посланник смерти / Messenger of Death [боевик, триллер, криминал, 1988] BDRip 720p, Mvo

salma3

22 | 27

6.35 ГБ

В этой теме нет новых непрочитанных сообщений. Цвета / Colors [боевик, триллер, драма, криминал, 1988] BDRip 720p, Mvo [5 канал]

salma3

2 | 1

5.76 ГБ

В этой теме нет новых непрочитанных сообщений. Молодые стрелки / Young Guns [Боевик, Триллер, Вестерн, Криминал, 1988] BDRip 720p, Dvo+Avo

salma3

0 | 0

5.18 ГБ


Начать новую тему Ответить на тему  [ 1 сообщение ] 




Для Мосгорсуда, Роскомнадзора и рекламодателей:: mosgorsud-torrent[собачка]yandex.ru
cron