Торрент файл
скачать торрент магнет ссылка Добавлен: 28 ноя 2017, 21:52
Размер: 3.14 ГБ
Сидеров: 400
Личеров: 9
Статус: (salma3)
Автор

СообщениеДобавлено: 28 ноя 2017, 21:52 

Не в сети
Супермодератор
Аватара пользователя
Дата регистрации:
15 фев 2012, 16:44
Возраст: 28
Спасибо: 7290 / 2147
Сообщения: 70618
Год выхода:2016
Категория: фантастика, триллер
Режиссер: Трейвис Миллоу

В главных ролях: Крис Келли, Кассандра Кларк, Чак Клейн, Брэндон Лумис, Гаррет Бекке, Андреа Энни, Оуэнс Сьюзан, Белкин Брайан, Раговин Аманда, Лау Луи Клоц

О фильме: Главного героя заперли в автоматизированной тюрьме. Ему предстоит обхитрить компьютер, чтобы сбежать и попытаться найти дорогу назад — во внешний мир, которого уже может не существовать.



Произведено: США
Продолжительность: 01:43:50
Перевод: Любительский [многоголосый ](GreenРай Studio)


Файл
Качество: WEB-DLRip 720p
Видео данные: MKV, 1280x536 (2.40:1), 23.976 fps, 4000 Кбит/с
Аудио данные: AC3, 2 ch, 384 Кбит/с

Присутствует реклама!

General
Unique ID : 233333264798710575346356475004566246273 (0xAF8A5A27CBEB39328E0F566BBF021381)
Complete name : D:Инфинити ЧамбеInfinity.Chamber.2016.P.WEB-DL.720p.mkv
Format : Matroska
Format version : Version 4 / Version 2
File size : 3.14 GiB
Duration : 1 h 43 min
Overall bit rate mode : Constant
Overall bit rate : 4 324 kb/s
Encoded date : UTC 2017-11-27 08:22:30
Writing application : mkvmerge v8.3.0 ('Over the Horizon') 64bit
Writing library : libebml v1.3.1 + libmatroska v1.4.2

Video
ID : 1
Format : AVC
Format/Info : Advanced Video Codec
Format profile : [email protected]
Format settings, CABAC : Yes
Format settings, ReFrames : 3 frames
Codec ID : V_MPEG4/ISO/AVC
Duration : 1 h 43 min
Bit rate mode : Constant
Bit rate : 4 000 kb/s
Width : 1 280 pixels
Height : 536 pixels
Display aspect ratio : 2.40:1
Frame rate mode : Constant
Frame rate : 23.976 (23976/1000) FPS
Standard : NTSC
Color space : YUV
Chroma subsampling : 4:2:0
Bit depth : 8 bits
Scan type : Progressive
Bits/(Pixel*Frame) : 0.243
Stream size : 2.86 GiB (91%)
Language : English
Default : Yes
Forced : No
Color range : Limited

Audio
ID : 2
Format : AC-3
Format/Info : Audio Coding 3
Mode extension : CM (complete main)
Format settings, Endianness : Big
Codec ID : A_AC3
Duration : 1 h 43 min
Bit rate mode : Constant
Bit rate : 384 kb/s
Channel(s) : 2 channels
Channel positions : Front: L R
Sampling rate : 48.0 kHz
Frame rate : 31.250 FPS (1536 spf)
Compression mode : Lossy
Stream size : 285 MiB (9%)
Default : Yes
Forced : No


Релиз от:


_________________
Проголосуй за трекер Открытый торрент трекер - RUS-MEDIA.ORG

Проголосуй Открытый торрент трекер - RUS-MEDIA.ORG


Вернуться к началу
 Профиль Отправить личное сообщение  
 
   Похожие торренты   Автор   Торрент   Размер 
В этой теме нет новых непрочитанных сообщений. Камера бесконечности / Infinity Chamber [фантастика, триллер, 2016] WEB-DLRip, Mvo

salma3

293 | 71

1.36 ГБ

В этой теме нет новых непрочитанных сообщений. Камера / The Chamber [Триллер, 2016] HDRip, Mvo

salma3

654 | 32

1.37 ГБ

В этой теме нет новых непрочитанных сообщений. Камера / The Chamber [Триллер, 2016] BDRip 720p, Mvo

salma3

920 | 408

3.49 ГБ

В этой теме нет новых непрочитанных сообщений. Мстители: Война бесконечности / Avengers: Infinity War [фантастика, фэнтези, боевик, 2018] TeleSynch, Mvo

salma3

2866 | 258

2.05 ГБ

В этой теме нет новых непрочитанных сообщений. Мстители: Война бесконечности / Avengers: Infinity War [Фантастика, фэнтези, боевик, 2018] Blu-ray 1080p, Dub [iTunes]

salma3

0 | 0

43.31 ГБ

В этой теме нет новых непрочитанных сообщений. Мстители: Война бесконечности / Avengers: Infinity War [Фантастика, фэнтези, боевик, 2018] BDRip-AVC, Dub [iTunes]

salma3

0 | 1

3.61 ГБ

В этой теме нет новых непрочитанных сообщений. Мстители: Война бесконечности / Avengers: Infinity War [Фантастика, фэнтези, боевик, 2018] BDRip, Dub [iTunes]

salma3

0 | 0

1.46 ГБ


Начать новую тему Ответить на тему  [ 1 сообщение ] 




Для Мосгорсуда, Роскомнадзора и рекламодателей:: mosgorsud-torrent[собачка]yandex.ru
cron