Торрент файл
скачать торрент магнет ссылка Добавлен: 01 ноя 2017, 12:33
Размер: 8.37 ГБ
Сидеров: 1
Личеров: 1
Статус: (salma3)
Автор

СообщениеДобавлено: 01 ноя 2017, 12:33 

Не в сети
Супермодератор
Аватара пользователя
Дата регистрации:
15 фев 2012, 16:44
Возраст: 28
Спасибо: 7224 / 2147
Сообщения: 67920
Год выхода: 2003
Жанр: спорт, триллер
Режиссер: Луи-Паскаль Кувлер / Louis-Pascal Couvelaire

В ролях: Сагамор Стевенен, Питер Янгблад Хиллз, Дайан Крюгер, Жан-Пьер Кассель, Беатрис Аженен, Филипп Бас, Филипп Леллушб, Лиза Барбуша, Джинн Моран, Франсуа Леванталь

О фильме:
Главный герой фильма — бесстрашный и виртуозный автогонщик Мишель Вальян — многократный победитель крупнейших авторалли мира. Победам и успехам его команды восторженно рукоплещет публика, ему завидуют побежденные соперники. На сложнейшей трассе этой супер-гонки их ждет бескомпромиссная и жестокая борьба не за первое место, а борьба за жизнь, когда коварство соперников не знает границ.



Страна: Франция
Продолжительность: 01:43:28
Перевод: Русский: Дубляж
2: Украинский: Профессиональный двухголосый закадровый - Новий канал
3: Украинский: Профессиональный многоголосый закадровый - К1
4: Русский: одноголосый закадровый (авторский) (А.Дасевич)

Файл
Кодек: x264
Качество: BDRip 720p
Видео: 1280x544 (2.35:1), 23.976 fps, AVC, ~7538 Kbps, 0.452 bits/pixel
Звук:
#1: Russian, 48.0 KHz, AC3, 6 ch, 384 Kbps - Dub
#2: Ukrainian, 48.0 KHz, AC3, 6 ch, 448 Kbps - Двухголосый закадровый - Новий канал
#3: Ukrainian, 48.0 KHz, AC3, 2 ch, 192 Kbps - Многоголосый закадровый - К1
#4: Russian, 48.0 KHz, DTS, 6 ch, 1510 Kbps - A. Dasevich
#5: French, 48.0 KHz, DTS, 6 ch, 1510 Kbps - Original
Субтитры: русские, английские

Общее
Уникальный идентификатор : 186883337568736117971463700430392167423 (0x8C986BED85ED644B8FE644BE33248BFF)
Полное имя : D:Michel.Vaillant.2003.720p.BluRay.2xRus.2xUkr.Fre.HDCLUB.mkv
Формат : Matroska
Версия формата : Version 4 / Version 2
Размер файла : 8,37 Гбайт
Продолжительность : 1 ч. 43 м.
Общий поток : 11,6 Мбит/сек
Дата кодирования : UTC 2017-10-08 07:14:11
Программа кодирования : mkvmerge v7.0.0 ('Where We Going') 32bit built on Jun 9 2014 15:08:34
Библиотека кодирования : libebml v1.3.0 + libmatroska v1.4.1

Видео
Идентификатор : 1
Формат : AVC
Формат/Информация : Advanced Video Codec
Профиль формата : [email protected]
Параметр CABAC формата : Да
Параметр RefFrames формата : 6 кадров
Параметр GOP формата : N=1
Идентификатор кодека : V_MPEG4/ISO/AVC
Продолжительность : 1 ч. 43 м.
Битрейт : 7538 Кбит/сек
Ширина : 1280 пикселей
Высота : 544 пикселя
Соотношение сторон : 2,35:1
Режим частоты кадров : Постоянный
Частота кадров : 23,976 (24000/1001) кадра/сек
Цветовое пространство : YUV
Субдискретизация насыщенности : 4:2:0
Битовая глубина : 8 бит
Тип развёртки : Прогрессивная
Бит/(Пиксели*Кадры) : 0.452
Размер потока : 5,45 Гбайт (65%)
Библиотека кодирования : x264 core 75 r1259M dd026f2
Настройки программы : cabac=1 / ref=6 / deblock=1:-3:-3 / analyse=0x3:0x113 / me=umh / subme=10 / psy=1 / psy_rd=1.2:0.0 / mixed_ref=1 / me_range=64 / chroma_me=1 / trellis=2 / 8x8dct=1 / cqm=0 / deadzone=21,11 / chroma_qp_offset=-2 / threads=6 / nr=0 / decimate=1 / mbaff=0 / bframes=8 / b_pyramid=1 / b_adapt=2 / b_bias=0 / direct=3 / wpredb=1 / keyint=250 / keyint_min=25 / scenecut=40 / rc=2pass / mbtree=0 / bitrate=7538 / ratetol=1.0 / qcomp=0.60 / qpmin=10 / qpmax=51 / qpstep=4 / cplxblur=20.0 / qblur=0.5 / ip_ratio=1.40 / pb_ratio=1.30 / aq=1:0.90
Default : Да
Forced : Нет

Аудио #1
Идентификатор : 2
Формат : AC-3
Формат/Информация : Audio Coding 3
Параметр Endianness формата : Big
Идентификатор кодека : A_AC3
Продолжительность : 1 ч. 43 м.
Вид битрейта : Постоянный
Битрейт : 384 Кбит/сек
Каналы : 6 каналов
Расположение каналов : Front: L C R, Side: L R, LFE
Частота : 48,0 КГц
Частота кадров : 31,250 кадров/сек (1536 SPF)
Битовая глубина : 16 бит
Метод сжатия : С потерями
Размер потока : 284 Мбайт (3%)
Заголовок : Dub
Язык : Russian
ServiceKind/String : Complete Main
Default : Да
Forced : Нет

Аудио #2
Идентификатор : 3
Формат : AC-3
Формат/Информация : Audio Coding 3
Параметр Endianness формата : Big
Идентификатор кодека : A_AC3
Продолжительность : 1 ч. 43 м.
Вид битрейта : Постоянный
Битрейт : 448 Кбит/сек
Каналы : 6 каналов
Расположение каналов : Front: L C R, Side: L R, LFE
Частота : 48,0 КГц
Частота кадров : 31,250 кадров/сек (1536 SPF)
Битовая глубина : 16 бит
Метод сжатия : С потерями
Размер потока : 331 Мбайт (4%)
Заголовок : Двухголосый закадровый - Новий канал
Язык : Ukrainian
ServiceKind/String : Complete Main
Default : Нет
Forced : Да

Аудио #3
Идентификатор : 4
Формат : AC-3
Формат/Информация : Audio Coding 3
Параметр Endianness формата : Big
Идентификатор кодека : A_AC3
Продолжительность : 1 ч. 43 м.
Вид битрейта : Постоянный
Битрейт : 192 Кбит/сек
Каналы : 2 канала
Расположение каналов : Front: L R
Частота : 48,0 КГц
Частота кадров : 31,250 кадров/сек (1536 SPF)
Битовая глубина : 16 бит
Метод сжатия : С потерями
Размер потока : 142 Мбайт (2%)
Заголовок : Могоголосый закадровый - К1
Язык : Ukrainian
ServiceKind/String : Complete Main
Default : Нет
Forced : Нет

Аудио #4
Идентификатор : 5
Формат : DTS
Формат/Информация : Digital Theater Systems
Режим : 16
Параметр Endianness формата : Big
Идентификатор кодека : A_DTS
Продолжительность : 1 ч. 43 м.
Вид битрейта : Постоянный
Битрейт : 1509 Кбит/сек
Каналы : 6 каналов
Расположение каналов : Front: L C R, Side: L R, LFE
Частота : 48,0 КГц
Частота кадров : 93,750 кадра/сек (512 SPF)
Битовая глубина : 16 бит
Метод сжатия : С потерями
Задержка видео : 50 мс.
Размер потока : 1,09 Гбайт (13%)
Заголовок : A. Dasevich
Язык : Russian
Default : Нет
Forced : Нет

Аудио #5
Идентификатор : 6
Формат : DTS
Формат/Информация : Digital Theater Systems
Режим : 16
Параметр Endianness формата : Big
Идентификатор кодека : A_DTS
Продолжительность : 1 ч. 43 м.
Вид битрейта : Постоянный
Битрейт : 1509 Кбит/сек
Каналы : 6 каналов
Расположение каналов : Front: L C R, Side: L R, LFE
Частота : 48,0 КГц
Частота кадров : 93,750 кадра/сек (512 SPF)
Битовая глубина : 16 бит
Метод сжатия : С потерями
Задержка видео : 50 мс.
Размер потока : 1,09 Гбайт (13%)
Заголовок : Original
Язык : French
Default : Нет
Forced : Нет

Текст #1
Идентификатор : 7
Формат : UTF-8
Идентификатор кодека : S_TEXT/UTF8
Идентификатор кодека/Информация : UTF-8 Plain Text
Продолжительность : 1 ч. 35 м.
Битрейт : 74 бит/сек
ElementCount : 1106
Размер потока : 52,4 Кбайт (0%)
Заголовок : Full
Язык : Russian
Default : Да
Forced : Нет

Текст #2
Идентификатор : 8
Формат : UTF-8
Идентификатор кодека : S_TEXT/UTF8
Идентификатор кодека/Информация : UTF-8 Plain Text
Продолжительность : 1 ч. 35 м.
Битрейт : 32 бит/сек
ElementCount : 932
Размер потока : 22,9 Кбайт (0%)
Заголовок : Full
Язык : English
Default : Нет
Forced : Нет

Меню
00:00:00.000 : :Chapter 01
00:04:25.890 : :Chapter 02
00:16:20.771 : :Chapter 03
00:24:57.369 : :Chapter 04
00:33:15.326 : :Chapter 05
00:43:12.047 : :Chapter 06
00:48:50.677 : :Chapter 07
00:56:27.383 : :Chapter 08
01:05:13.659 : :Chapter 09
01:16:21.701 : :Chapter 10
01:24:55.548 : :Chapter 11
01:30:07.360 : :Chapter 12



Релиз от:


_________________
Проголосуй за трекер Открытый торрент трекер - RUS-MEDIA.ORG

Проголосуй Открытый торрент трекер - RUS-MEDIA.ORG


Вернуться к началу
 Профиль Отправить личное сообщение  
 
   Похожие торренты   Автор   Торрент   Размер 
В этой теме нет новых непрочитанных сообщений. Мишель Вальян: Жажда скорости / Michel Vaillant [спорт, триллер, 2003] HDRip-AVC, Dub

salma3

7 | 2

745.25 МБ

В этой теме нет новых непрочитанных сообщений. Призрак Мон-Сен-Мишель / L'ombre du Mont-Saint-Michel [триллер, 2010] HDTVRip, Mvo

salma3

91 | 22

1.47 ГБ

В этой теме нет новых непрочитанных сообщений. Призрак Мон-Сен-Мишель / L'ombre du Mont-Saint-Michel (Клаус Бидерманн / Klaus Biedermann) [2010г., Франция, триллер, драма, детектив, SATRip] Dub

Alfredovich

22 | 2

1.27 ГБ

В этой теме нет новых непрочитанных сообщений. Молодой Годар / The Fox / Le Redoutable (Мишель Хазанавичус / Michel Hazanavicius) [2017г., Франция, драма, WEB-DLRip] MVO

Alfredovich

42 | 6

1.46 ГБ

В этой теме нет новых непрочитанных сообщений. Жажда / Thirst [ужасы, фантастика, триллер, мелодрама, 1979] BDRip 720p, Mvo

salma3

21 | 7

8.9 ГБ

В этой теме нет новых непрочитанных сообщений. Жажда смерти / Death Wish [боевик, триллер, криминал, 2018] BDRip 720p, Dub [iTunes]

salma3

0 | 0

5.22 ГБ

В этой теме нет новых непрочитанных сообщений. Основной инстинкт 2: Жажда риска / Basic Instinct 2 [триллер, драма, детектив, 2006] BDRip 720p, Dub

salma3

142 | 35

3.42 ГБ


Начать новую тему Ответить на тему  [ 1 сообщение ] 




Для Мосгорсуда, Роскомнадзора и рекламодателей:: mosgorsud-torrent[собачка]yandex.ru
cron