Торрент файл
скачать торрент магнет ссылка Добавлен: 29 окт 2017, 15:27
Размер: 21.72 ГБ
Сидеров: 10
Личеров: 6
Статус: (salma3)
Автор

СообщениеДобавлено: 29 окт 2017, 15:27 

Не в сети
Супермодератор
Аватара пользователя
Дата регистрации:
15 фев 2012, 16:44
Возраст: 28
Спасибо: 7290 / 2147
Сообщения: 70815
Год выхода: 1979
Жанр: приключения, семейный, спорт
Режиссер: Кэррол Бэллард

В ролях: Келли Рено, Микки Руни, Тери Гарр, Кларенс Мьюз, Хойт Экстон, Майкл Хиггинс, Эд МакНамара, Догми Ларби, Джон Бертон, Джон Баканан, Кристен Вигард, Фаусто Тоцци, Джон Карлсен, Леопольдо Триесте, Фрэнк Казинс, Дональд Ходсон, Марн Мэйтленд, Том Дальгрен

Описание: Отправившись в морское путешествие со своим отцом, Алек и не подозревал, что судьба приготовила ему совсем не детское испытание. Корабль, на котором они путешествовали, помимо пассажиров перевозил великолепного, черного, как южная ночь, арабского скакуна. Внезапно корабль терпит крушение, выжить после которого удается только Алеку и жеребцу. Они попадают на необитаемый остров, где, испытав на себе все прелести жизни вдали от цивилизации, они становятся неразлучными друзьями. Когда же Алека находит поисковая команда, он забирает своего друга домой, где они начинают готовиться к участию в самых престижных скачках против лучших скакунов планеты.



Страна: США
Продолжительность: 01:57:36
Перевод 1: Профессиональный (двухголосый закадровый) ОРТ
Перевод 2: Профессиональный (двухголосый закадровый) НТВ+
Субтитры: русские, английские, английские SDH
Оригинальная аудиодорожка: английский

Файл
Качество: BDRemux 1080р
Видео: AVC / 1920x1080 / 16:9 / 24.0 fps / 23996 Kbps / [email protected]
Аудио 1: Rus / AC3 / 48.0 KHz / 2.0 / 192kbps / DVO / ОРТ
Аудио 2: Rus / AC3 / 48.0 KHz / 2.0 / 192kbps / DVO / НТВ+
Аудио 3: Eng / DTS-HD MA / 48.0 KHz / 2.0 / 2048 kbps / 24 bit (DTS Core 48.0 KHz / 2.0 / 1509kbps / 24 bit)

Общее
Уникальный идентификатор : 251859649899629884138715193157047109835 (0xBD7A67768916F155A82BDC59A0FD48CB)
Полное имя : The.Black.Stallion.1979.Criterion.Collection.BDRemux.1080p.mkv
Формат : Matroska
Версия формата : Version 4 / Version 2
Размер файла : 21,7 Гбайт
Продолжительность : 1 ч. 57 м.
Режим общего битрейта : Переменный
Общий поток : 26,4 Мбит/сек
Название фильма : The.Black.Stallion.1979.Criterion.Collection.BDRemux.1080p-porvaliparus
Дата кодирования : UTC 2017-10-29 06:01:37
Программа кодирования : mkvmerge v17.0.0 ('Be Ur Friend') 64-bit
Библиотека кодирования : libebml v1.3.5 + libmatroska v1.4.8

Видео
Идентификатор : 1
Формат : AVC
Формат/Информация : Advanced Video Codec
Профиль формата : [email protected]
Настройки формата : CABAC / 4 Ref Frames
Параметр CABAC формата : Да
Параметр RefFrames формата : 4 кадра
Идентификатор кодека : V_MPEG4/ISO/AVC
Продолжительность : 1 ч. 57 м.
Вид битрейта : Переменный
Битрейт : 24,0 Мбит/сек
Максимальный битрейт : 37,0 Мбит/сек
Ширина : 1920 пикселей
Высота : 1080 пикселей
Соотношение сторон : 16:9
Режим частоты кадров : Постоянный
Частота кадров : 23,976 (24000/1001) кадра/сек
Цветовое пространство : YUV
Субдискретизация насыщенности : 4:2:0
Битовая глубина : 8 бит
Тип развёртки : Прогрессивная
Бит/(Пиксели*Кадры) : 0.483
Размер потока : 19,7 Гбайт (91%)
Заголовок : The.Black.Stallion.1979.Criterion.Collection.BDRemux.1080p
Default : Да
Forced : Нет

Аудио #1
Идентификатор : 2
Формат : AC-3
Формат/Информация : Audio Coding 3
Параметр Endianness формата : Big
Идентификатор кодека : A_AC3
Продолжительность : 1 ч. 57 м.
Вид битрейта : Постоянный
Битрейт : 192 Кбит/сек
Каналы : 2 канала
Расположение каналов : Front: L R
Частота : 48,0 КГц
Частота кадров : 31,250 кадров/сек (1536 SPF)
Битовая глубина : 16 бит
Метод сжатия : С потерями
Размер потока : 161 Мбайт (1%)
Заголовок : DVO [ОРТ ]
Язык : Russian
Default : Да
Forced : Нет

Аудио #2
Идентификатор : 3
Формат : AC-3
Формат/Информация : Audio Coding 3
Параметр Endianness формата : Big
Идентификатор кодека : A_AC3
Продолжительность : 1 ч. 57 м.
Вид битрейта : Постоянный
Битрейт : 192 Кбит/сек
Каналы : 2 канала
Расположение каналов : Front: L R
Частота : 48,0 КГц
Частота кадров : 31,250 кадров/сек (1536 SPF)
Битовая глубина : 16 бит
Метод сжатия : С потерями
Размер потока : 161 Мбайт (1%)
Заголовок : DVO [НТВ+]
Язык : Russian
Default : Нет
Forced : Нет

Аудио #3
Идентификатор : 4
Формат : DTS
Формат/Информация : Digital Theater Systems
Профиль формата : MA / Core
Режим : 16
Параметр Endianness формата : Big
Идентификатор кодека : A_DTS
Продолжительность : 1 ч. 57 м.
Вид битрейта : Переменный / Постоянный
Битрейт : 2048 Кбит/сек / 1509 Кбит/сек
Каналы : 2 канала
Расположение каналов : / Front: L R
Частота : 48,0 КГц
Частота кадров : 93,750 кадра/сек (512 SPF)
Битовая глубина : 24 бит
Метод сжатия : Без потерь / Lossy
Размер потока : 1,69 Гбайт (8%)
Язык : English
Default : Нет
Forced : Нет

Текст #1
Идентификатор : 5
Формат : UTF-8
Идентификатор кодека : S_TEXT/UTF8
Идентификатор кодека/Информация : UTF-8 Plain Text
Продолжительность : 1 ч. 49 м.
Битрейт : 25 бит/сек
ElementCount : 425
Размер потока : 20,2 Кбайт (0%)
Язык : Russian
Default : Нет
Forced : Нет

Текст #2
Идентификатор : 6
Формат : UTF-8
Идентификатор кодека : S_TEXT/UTF8
Идентификатор кодека/Информация : UTF-8 Plain Text
Продолжительность : 1 ч. 51 м.
Битрейт : 20 бит/сек
ElementCount : 473
Размер потока : 16,8 Кбайт (0%)
Язык : English
Default : Нет
Forced : Нет

Текст #3
Идентификатор : 7
Формат : UTF-8
Идентификатор кодека : S_TEXT/UTF8
Идентификатор кодека/Информация : UTF-8 Plain Text
Продолжительность : 1 ч. 51 м.
Битрейт : 21 бит/сек
ElementCount : 541
Размер потока : 17,9 Кбайт (0%)
Заголовок : SDH
Язык : English
Default : Нет
Forced : Нет

Меню
00:00:00.000 : en:00:00:00.000
00:09:09.424 : en:00:09:09.424
00:13:24.220 : en:00:13:24.220
00:18:32.945 : en:00:18:32.945
00:26:56.573 : en:00:26:56.573
00:46:03.135 : en:00:46:03.135
00:50:11.217 : en:00:50:11.217
00:54:17.963 : en:00:54:17.963
01:05:53.616 : en:01:05:53.616
01:14:17.578 : en:01:14:17.578
01:20:16.854 : en:01:20:16.854
01:33:01.576 : en:01:33:01.576
01:41:17.697 : en:01:41:17.697
01:45:53.472 : en:01:45:53.472
01:54:58.308 : en:01:54:58.308


_________________
Проголосуй за трекер Открытый торрент трекер - RUS-MEDIA.ORG

Проголосуй Открытый торрент трекер - RUS-MEDIA.ORG


Вернуться к началу
 Профиль Отправить личное сообщение  
 
   Похожие торренты   Автор   Торрент   Размер 
В этой теме нет новых непрочитанных сообщений. Чёрный кот / The Black Cat [ужасы, 1981] BDRemux 1080р, Mvo

salma3

6 | 16

24.75 ГБ

В этой теме нет новых непрочитанных сообщений. Удар головой / Coup de tête [драма, комедия, спорт, 1979] BDRemux 1080р, Mvo

salma3

0 | 0

20.91 ГБ

В этой теме нет новых непрочитанных сообщений. Черный Джек / Black Jack [комедия, приключения, 1979] HDRip, Avo

salma3

245 | 70

1.46 ГБ

В этой теме нет новых непрочитанных сообщений. Черный котел / The Black Cauldron [Мультфильм, приключения, семейный, 1985] WEB-DL 1080p, Dub

salma3

0 | 0

6.96 ГБ

В этой теме нет новых непрочитанных сообщений. Тэсс / Tess [драма, мелодрама, 1979] BDRemux 1080р, Mvo

salma3

14 | 5

27.14 ГБ

В этой теме нет новых непрочитанных сообщений. Освободите Вилли / Free Willy [драма, приключения, семейный, 1993] BDRemux 1080р, Dub+Mvo+Dvo+Avo+Sub

salma3

9 | 10

25.92 ГБ

В этой теме нет новых непрочитанных сообщений. Большой и добрый великан / The BFG [Фэнтези, экранизация, приключения, семейный, 2016] BDRemux 1080р, Dub [чистый звук]

salma3

62 | 6

25.06 ГБ


Начать новую тему Ответить на тему  [ 1 сообщение ] 




Для Мосгорсуда, Роскомнадзора и рекламодателей:: mosgorsud-torrent[собачка]yandex.ru
cron