Торрент файл
скачать торрент магнет ссылка Добавлен: 14 май 2017, 20:49
Размер: 3.86 ГБ
Сидеров: 411
Личеров: 189
Автор

СообщениеДобавлено: 14 май 2017, 20:49 

Не в сети
Супермодератор
Аватара пользователя
Дата регистрации:
15 фев 2012, 16:44
Возраст: 28
Спасибо: 7226 / 2147
Сообщения: 68215
Год выхода: 2017
Жанр: комедия, приключения, семейный
Режиссер: Рон Оливер

В ролях: Джоделль Ферланд, Бэрри Боствик, Эндрю Херр, Рики Гарсиа, Пол МакДжиллион, Эйприл Телек, Кевин О’Грэйди, Лиза МакФадден, Омари Ньютон, Кертис Льюм

О фильме: Кевин Шепард (Рики Гарсиа) – смекалистый парень, и во вранье с ним мало кто может сравниться, кроме разве что коварного продюсера Ларри Вульфа (Бэрри Боствик), который крадет у Кевина идею новой видеоигры. Вульф – тот еще наглец, и Кевин понимает, что это вызов. ИГРА НАЧАЛАСЬ! Они вместе с лучшей подругой Беккой (Джоделль Ферланд) не остановятся ни перед чем, чтобы заставить Вульфа признаться во лжи. В ход пойдут самые эпические выходки и подставы, и лгун сдастся на милость победителям.



Страна: США
Продолжительность: 01:34:31
Перевод: Дублированный | iTunes

Файл
Кодек: H.264
Качество: WEB-DL 1080p
Видео: 1916x1076 (16:9), 23.976 fps, AVC MPEG-4 (x264), [email protected], ~ 5077 kbps avg, 0.103 bit/pixel
Звук: AC3, 6 ch, 384 kbps
Субтитры: Русские

General
Unique ID : 188666284845057274144531669247415042834 (0x8DEFCE03F5FE7A60982E22C926AC4312)
Complete name : D:TorrentBigger.Fatter.Liar.2017.D.WEB-DL.1O8Op.mkv
Format : Matroska
Format version : Version 2
File size : 3.86 GiB
Duration : 1 h 34 min
Overall bit rate : 5 846 kb/s
Movie name : Bigger.Fatter.Liar.2017.1080p.WEBRip.DD5.1.x264-FGT
Encoded date : UTC 2017-05-14 10:02:02
Writing application : mkvmerge v8.3.0 ('Over the Horizon') 64bit
Writing library : libebml v1.3.1 + libmatroska v1.4.2

Video
ID : 1
Format : AVC
Format/Info : Advanced Video Codec
Format profile : [email protected]
Format settings, CABAC : Yes
Format settings, ReFrames : 4 frames
Codec ID : V_MPEG4/ISO/AVC
Duration : 1 h 34 min
Bit rate : 5 077 kb/s
Width : 1 916 pixels
Height : 1 076 pixels
Display aspect ratio : 16:9
Frame rate mode : Constant
Frame rate : 23.976 (24000/1001) FPS
Color space : YUV
Chroma subsampling : 4:2:0
Bit depth : 8 bits
Scan type : Progressive
Bits/(Pixel*Frame) : 0.103
Stream size : 3.35 GiB (87%)
Language : English
Default : Yes
Forced : No
Color range : Limited
Color primaries : BT.709
Transfer characteristics : BT.709
Matrix coefficients : BT.709

Audio #1
ID : 2
Format : AC-3
Format/Info : Audio Coding 3
Format settings, Endianness : Big
Codec ID : A_AC3
Duration : 1 h 34 min
Bit rate mode : Constant
Bit rate : 384 kb/s
Channel(s) : 6 channels
Channel positions : Front: L C R, Side: L R, LFE
Sampling rate : 48.0 kHz
Frame rate : 31.250 FPS (1536 spf)
Bit depth : 16 bits
Compression mode : Lossy
Stream size : 260 MiB (7%)
Language : Russian
Service kind : Complete Main
Default : Yes
Forced : No

Audio #2
ID : 3
Format : AC-3
Format/Info : Audio Coding 3
Format settings, Endianness : Big
Codec ID : A_AC3
Duration : 1 h 34 min
Bit rate mode : Constant
Bit rate : 384 kb/s
Channel(s) : 6 channels
Channel positions : Front: L C R, Side: L R, LFE
Sampling rate : 48.0 kHz
Frame rate : 31.250 FPS (1536 spf)
Bit depth : 16 bits
Compression mode : Lossy
Stream size : 260 MiB (7%)
Language : English
Service kind : Complete Main
Default : No
Forced : No

Text
ID : 4
Format : UTF-8
Codec ID : S_TEXT/UTF8
Codec ID/Info : UTF-8 Plain Text
Duration : 1 h 27 min
Bit rate : 3 b/s
Count of elements : 47
Stream size : 2.22 KiB (0%)
Language : Russian
Default : Yes
Forced : No



_________________
Проголосуй за трекер Открытый торрент трекер - RUS-MEDIA.ORG

Проголосуй Открытый торрент трекер - RUS-MEDIA.ORG


Вернуться к началу
 Профиль Отправить личное сообщение  
 
   Похожие торренты   Автор   Торрент   Размер 
В этой теме нет новых непрочитанных сообщений. Большой толстый лгун 2 / Big Fat Liar 2 [комедия, приключения, семейный, 2017] WEB-DL 720p, Dub [iTunes]

salma3

245 | 159

3.3 ГБ

В этой теме нет новых непрочитанных сообщений. Большой толстый лгун 2 / Big Fat Liar 2 [комедия, приключения, семейный, 2017] WEB-DLRip-AVC, Dub [iTunes]

salma3

998 | 158

1.46 ГБ

В этой теме нет новых непрочитанных сообщений. Большой толстый лгун / Big Fat Liar [Комедия, приключения, семейный, 2002] BDRip 1080p, Mvo

salma3

13 | 4

12.01 ГБ

В этой теме нет новых непрочитанных сообщений. Большой Толстый Лгун / Big Fat Liar [комедия, приключения, семейный, 2002] BD Remux 1080p, Mvo

salma3

1 | 6

25.03 ГБ

В этой теме нет новых непрочитанных сообщений. Большой толстый лгун / Big Fat Liar [комедия, приключения, семейный, 2002] BDRip 720p, Mvo+Dvo+Sub

salma3

13 | 8

6.07 ГБ

В этой теме нет новых непрочитанных сообщений. Ненастоящий вампир / Liar, Liar, Vampire (Винс Марселло) [комедия, семейный, 2015] HDTVRip, dvo

Dracon

156 | 20

1.28 ГБ

В этой теме нет новых непрочитанных сообщений. Дозор джунглей / Les as de la jungle [Мультфильм, комедия, приключения, семейный, 2017] BDRip 1080p, Dub [iTunes]

salma3

283 | 17

1.99 ГБ


Начать новую тему Ответить на тему  [ 1 сообщение ] 




Для Мосгорсуда, Роскомнадзора и рекламодателей:: mosgorsud-torrent[собачка]yandex.ru
cron