Торрент файл
скачать торрент магнет ссылка Добавлен: 19 апр 2017, 14:40
Размер: 4.37 ГБ
Сидеров: 31
Личеров: 17
Статус: (salma3)
Автор

СообщениеДобавлено: 19 апр 2017, 14:40 

Не в сети
Супермодератор
Аватара пользователя
Дата регистрации:
15 фев 2012, 16:44
Возраст: 28
Спасибо: 7290 / 2147
Сообщения: 70815
Год выхода: 2002
Жанр: фэнтези, боевик, триллер
Режиссер: Чак Рассел

В ролях: Дуэйн Джонсон, Стивен Брэнд, Майкл Кларк Дункан, Келли Ху, Бернард Хилл, Грант Хеслов, Питер Фачинелли, Ральф Мёллер, Брэнском Ричмонд, Роджер Рис

О фильме: Эта история произошла 5 тыс. лет назад в Египте, еще задолго до постройки первых пирамид. Злой правитель и могущественный воин Мемнон решил поработить все народы, живущие в пустыне. Со своей многочисленной армией Мемнон выигрывает одно сражение за другим. Удача сопутствует жестокому злодею, потому что все злодеяния Мемнон совершает, опираясь на предсказания своего провидца. Осталась только горстка непокорных народов в пустыне, которые еще противостоят власти Мемнона. Немногие оставшиеся племена нанимают воина акадца Метаеса — человека убивающего за деньги — чтобы тот убил провидца Мемнона. Оказавшись во вражеском лагере, Метаес к своему удивлению обнаруживает, что ясновидец — это красивая молодая женщина Кассандра. Он оставляет ее в живых и берет с собой в пустыню, чтобы выманить Мемнона из его города-крепости Гоморры. Единственное, что может успокоить теперь Метаеса — это смерть Мемнона…



Выпущено: Universal Pictures
Продолжительность: 01:31:23
Перевод: Дублированный

Файл
Кодек: x264
Качество: BDRip 1080p
Видео: 1920x816 (2,35:1), 23.976 fps, 6399 kbps
Звук: 48 kHz, AC-3, 6 ch, 448 kbps
Субтитры: Русские, Английские

сэмпл

Общее
Уникальный идентификатор : 239662830344527940987066285093121869295 (0xB44D61D4B1D2F88C98706F72667AC5EF)
Полное имя : The.Scorpion.King.2002.BDRip.1080p.Rus.mkv
Формат : Matroska
Версия формата : Version 2
Размер файла : 4,37 Гбайт
Продолжительность : 1 ч. 31 м.
Общий поток : 6845 Кбит/сек
Дата кодирования : UTC 2011-10-20 19:56:22
Программа кодирования : mkvmerge v4.0.0 ('The Stars were mine') сборка от Jun 6 2010 16:18:42
Библиотека кодирования : libebml v1.0.0 + libmatroska v1.0.0

Видео
Идентификатор : 1
Формат : AVC
Формат/Информация : Advanced Video Codec
Профиль формата : [email protected]
Параметр CABAC формата : Да
Параметр ReFrames формата : 5 кадров
Идентификатор кодека : V_MPEG4/ISO/AVC
Продолжительность : 1 ч. 31 м.
Битрейт : 6399 Кбит/сек
Ширина : 1920 пикселей
Высота : 816 пикселей
Соотношение сторон : 2,35:1
Частота кадров : 23,976 кадра/сек
Цветовое пространство : YUV
Субдискретизация насыщенности : 4:2:0
Битовая глубина : 8 бит
Тип развёртки : Прогрессивная
Бит/(Пиксели*Кадры) : 0.170
Размер потока : 4,00 Гбайт (91%)
Библиотека кодирования : x264 core 118 r2085 8a62835
Настройки программы : cabac=1 / ref=5 / deblock=1:0:0 / analyse=0x3:0x133 / me=umh / subme=10 / psy=1 / psy_rd=1.00:0.10 / mixed_ref=1 / me_range=32 / chroma_me=1 / trellis=2 / 8x8dct=1 / cqm=0 / deadzone=21,11 / fast_pskip=0 / chroma_qp_offset=-3 / threads=12 / sliced_threads=0 / nr=0 / decimate=0 / interlaced=0 / bluray_compat=0 / constrained_intra=0 / bframes=5 / b_pyramid=2 / b_adapt=2 / b_bias=0 / direct=3 / weightb=1 / open_gop=0 / weightp=2 / keyint=240 / keyint_min=24 / scenecut=40 / intra_refresh=0 / rc_lookahead=60 / rc=2pass / mbtree=1 / bitrate=6399 / ratetol=1.0 / qcomp=0.60 / qpmin=0 / qpmax=69 / qpstep=4 / cplxblur=20.0 / qblur=0.5 / ip_ratio=1.40 / aq=1:1.00
Язык : English

Аудио
Идентификатор : 2
Формат : AC-3
Формат/Информация : Audio Coding 3
Расширение режима : CM (complete main)
Идентификатор кодека : A_AC3
Продолжительность : 1 ч. 31 м.
Вид битрейта : Постоянный
Битрейт : 448 Кбит/сек
Каналы : 6 каналов
Расположение каналов : Front: L C R, Side: L R, LFE
Частота : 48,0 КГц
Битовая глубина : 16 бит
Метод сжатия : С потерями
Размер потока : 293 Мбайт (7%)
Язык : Russian

Текст #1
Идентификатор : 3
Формат : UTF-8
Идентификатор кодека : S_TEXT/UTF8
Идентификатор кодека/Информация : UTF-8 Plain Text
Язык : Russian

Текст #2
Идентификатор : 4
Формат : UTF-8
Идентификатор кодека : S_TEXT/UTF8
Идентификатор кодека/Информация : UTF-8 Plain Text
Язык : English

Меню
00:00:00.000 : :Chapter 01
00:03:48.019 : :Chapter 02
00:05:04.012 : :Chapter 03
00:08:33.179 : :Chapter 04
00:11:34.443 : :Chapter 05
00:15:59.541 : :Chapter 06
00:21:34.710 : :Chapter 07
00:27:40.158 : :Chapter 08
00:29:49.496 : :Chapter 09
00:32:52.929 : :Chapter 10
00:39:11.766 : :Chapter 11
00:45:16.004 : :Chapter 12
00:51:00.515 : :Chapter 13
00:56:12.118 : :Chapter 14
01:03:42.109 : :Chapter 15
01:06:50.631 : :Chapter 16
01:11:35.874 : :Chapter 17
01:19:41.151 : :Chapter 18
01:21:43.356 : :Chapter 19
01:24:42.410 : :Chapter 20
01:31:28.858 : :Chapter 21


_________________
Проголосуй за трекер Открытый торрент трекер - RUS-MEDIA.ORG

Проголосуй Открытый торрент трекер - RUS-MEDIA.ORG


Вернуться к началу
 Профиль Отправить личное сообщение  
 
   Похожие торренты   Автор   Торрент   Размер 
В этой теме нет новых непрочитанных сообщений. Царь скорпионов / The Scorpion King [фэнтези, боевик, триллер, 2002] BDRemux 1080p, Dub

salma3

0 | 0

24.7 ГБ

В этой теме нет новых непрочитанных сообщений. Царь скорпионов / The Scorpion King [фэнтези, боевик, триллер, 2002] BDRip 720p, Dub+Sub

salma3

0 | 0

4.86 ГБ

В этой теме нет новых непрочитанных сообщений. Царь скорпионов / The Scorpion King [фэнтези, боевик, триллер, 2002] WEB-DL 1080p, Dub [Open Matte]

salma3

2 | 17

10.34 ГБ

В этой теме нет новых непрочитанных сообщений. Царь скорпионов / The Scorpion King [фэнтези, боевик, триллер, 2002] WEB-DLRip 720p, Dub [Open Matte]

salma3

0 | 0

3.6 ГБ

В этой теме нет новых непрочитанных сообщений. Царь скорпионов 2: Восхождение воина / The Scorpion King: Rise of a Warrior [фэнтези, боевик, приключения, 2008] BDRip 720р, Dub+Sub

salma3

0 | 0

4.25 ГБ

В этой теме нет новых непрочитанных сообщений. Царь обезьян: Царство женщин / Xi you ji nu er guo [фэнтези, боевик, приключения, комедия, 2018] BDRip 1080p, Mvo [3D-Video]

salma3

76 | 36

14.53 ГБ

В этой теме нет новых непрочитанных сообщений. Меч короля Артура / King Arthur: Legend of the Sword [фэнтези, боевик, драма, приключения, 2017] BDRip 1080p, Dub [iTunes]

salma3

13670 | 8859

9.52 ГБ


Начать новую тему Ответить на тему  [ 1 сообщение ] 




Для Мосгорсуда, Роскомнадзора и рекламодателей:: mosgorsud-torrent[собачка]yandex.ru
cron