Торрент файл
скачать торрент магнет ссылка Добавлен: 05 апр 2017, 10:47
Размер: 3.93 ГБ
Сидеров: 33
Личеров: 7
Статус: (salma3)
Автор

СообщениеДобавлено: 05 апр 2017, 10:47 

Не в сети
Супермодератор
Аватара пользователя
Дата регистрации:
15 фев 2012, 16:44
Возраст: 28
Спасибо: 7285 / 2147
Сообщения: 70259
Год выхода: 2015
Жанр: фантастика, боевик, приключения
Режиссер: Джош Транк

В ролях: Майлз Теллер, Майкл Б. Джордан, Кейт Мара, Джейми Белл, Тоби Кеббелл, Рег Э. Кэти, Тим Блейк Нельсон, Джошуа Монтес, Дэн Кастелланета, Оуэн Джадж

О фильме:
История о четырех молодых астронавтах, которые отважились на авантюрное путешествие в параллельное измерение для исследования аномальной волны космической энергии. Вернувшись из путешествия, они обнаружили у себя суперспособности, которые навсегда изменили их жизни…



Страна: США, Германия, Великобритания, Канада
Продолжительность: 01:39:58
Перевод: Дубляж (Blu-ray EUR)

Файл
Кодек: HEVC 10bit
Качество: BDRip-HEVC 1080p
Видео: 1920x804 at 23.976 fps, [email protected] [email protected]@Main, crf, ~4410 kbps avg
Звук:
Аудио#1: Russian: 48 kHz, DTS, 3/2 (L,C,R,l,r) + LFE ch, ~768.00 kbps avg
Аудио#2: English: 48 kHz, AC3, 3/2 (L,C,R,l,r) + LFE ch, ~640.00 kbps avg
Субтитры: Russian (Forced), Russian, English

General
Unique ID : 245424609066244202910065871299200509396 (0xB8A30F74581B3AADAF7AF5AB317565D4)
Complete name : Фантастическая четверка.2015.HEVC.mkv
Format : Matroska
Format version : Version 4 / Version 2
File size : 3.93 GiB
Duration : 1h 39mn
Overall bit rate : 5 631 Kbps
Encoded date : UTC 2017-04-04 10:26:53
Writing application : mkvmerge v9.5.0 ('Quiet Fire') 64bit
Writing library : libebml v1.3.4 + libmatroska v1.4.5
Video
ID : 1
Format : HEVC
Format/Info : High Efficiency Video Coding
Format profile : Main [email protected]@Main
Codec ID : V_MPEGH/ISO/HEVC
Duration : 1h 39mn
Bit rate : 4 412 Kbps
Width : 1 920 pixels
Height : 804 pixels
Display aspect ratio : 2.40:1
Frame rate mode : Constant
Frame rate : 23.976 (24000/1001) fps
Color space : YUV
Chroma subsampling : 4:2:0
Bit depth : 10 bits
Bits/(Pixel*Frame) : 0.119
Stream size : 3.08 GiB (78%)
Writing library : x265 2.3+27-7e137e3ae083:[Windows][GCC 5.3.1][64 bit] 10bit
Encoding settings : cpuid=1173503 / frame-threads=2 / numa-pools=4 / wpp / no-pmode / no-pme / no-psnr / no-ssim / log-level=2 / input-csp=1 / input-res=1920x804 / interlace=0 / total-frames=0 / level-idc=0 / high-tier=1 / uhd-bd=0 / ref=5 / no-allow-non-conformance / no-repeat-headers / annexb / no-aud / no-hrd / info / hash=0 / no-temporal-layers / open-gop / min-keyint=23 / keyint=250 / bframes=6 / b-adapt=2 / b-pyramid / bframe-bias=0 / rc-lookahead=40 / lookahead-slices=4 / scenecut=40 / no-intra-refresh / ctu=64 / min-cu-size=8 / no-rect / no-amp / max-tu-size=32 / tu-inter-depth=1 / tu-intra-depth=1 / limit-tu=0 / rdoq-level=2 / dynamic-rd=0.00 / signhide / no-tskip / nr-intra=0 / nr-inter=0 / no-constrained-intra / strong-intra-smoothing / max-merge=2 / limit-refs=3 / limit-modes / me=3 / subme=7 / merange=57 / temporal-mvp / weightp / weightb / no-analyze-src-pics / deblock=-3:-3 / no-sao / no-sao-non-deblock / rd=4 / no-early-skip / rskip / no-fast-intra / no-tskip-fast / no-cu-lossless / no-b-intra / rdpenalty=0 / psy-rd=2.00 / psy-rdoq=1.00 / no-rd-refine / analysis-mode=0 / no-lossless / cbqpoffs=0 / crqpoffs=0 / rc=crf / crf=16.0 / qcomp=0.60 / qpstep=4 / stats-write=0 / stats-read=0 / ipratio=1.40 / pbratio=1.30 / aq-mode=1 / aq-strength=1.00 / cutree / zone-count=0 / no-strict-cbr / qg-size=32 / no-rc-grain / qpmax=69 / qpmin=0 / sar=0 / overscan=0 / videoformat=5 / range=0 / colorprim=2 / transfer=2 / colormatrix=2 / chromaloc=0 / display-window=0 / max-cll=0,0 / min-luma=0 / max-luma=1023 / log2-max-poc-lsb=8 / vui-timing-info / vui-hrd-info / slices=1 / opt-qp-pps / opt-ref-list-length-pps / no-multi-pass-opt-rps / scenecut-bias=0.05 / no-opt-cu-delta-qp / no-aq-motion / no-hdr / no-hdr-opt / refine-level=5
Default : Yes
Forced : No
Audio #1
ID : 2
Format : DTS
Format/Info : Digital Theater Systems
Mode : 16
Format settings, Endianness : Big
Codec ID : A_DTS
Duration : 1h 39mn
Bit rate mode : Constant
Bit rate : 768 Kbps
Channel(s) : 6 channels
Channel positions : Front: L C R, Side: L R, LFE
Sampling rate : 48.0 KHz
Frame rate : 93.750 fps (512 spf)
Bit depth : 24 bits
Compression mode : Lossy
Stream size : 549 MiB (14%)
Language : Russian
Default : Yes
Forced : No
Audio #2
ID : 3
Format : AC-3
Format/Info : Audio Coding 3
Mode extension : CM (complete main)
Format settings, Endianness : Big
Codec ID : A_AC3
Duration : 1h 39mn
Bit rate mode : Constant
Bit rate : 448 Kbps
Channel(s) : 6 channels
Channel positions : Front: L C R, Side: L R, LFE
Sampling rate : 48.0 KHz
Frame rate : 31.250 fps (1536 spf)
Compression mode : Lossy
Stream size : 320 MiB (8%)
Language : English
Default : No
Forced : No
Text #1
ID : 4
Format : UTF-8
Codec ID : S_TEXT/UTF8
Codec ID/Info : UTF-8 Plain Text
Duration : 1h 31mn
Bit rate : 0 bps
Count of elements : 10
Stream size : 449 Bytes (0%)
Language : Russian
Default : Yes
Forced : Yes
Text #2
ID : 5
Format : UTF-8
Codec ID : S_TEXT/UTF8
Codec ID/Info : UTF-8 Plain Text
Duration : 1h 32mn
Bit rate : 82 bps
Count of elements : 1203
Stream size : 55.6 KiB (0%)
Language : Russian
Default : No
Forced : No
Text #3
ID : 6
Format : UTF-8
Codec ID : S_TEXT/UTF8
Codec ID/Info : UTF-8 Plain Text
Duration : 1h 32mn
Bit rate : 51 bps
Count of elements : 1303
Stream size : 34.9 KiB (0%)
Language : English
Default : No
Forced : No
Menu
00:00:00.000 : :Chapter 01
00:02:30.024 : :Chapter 02
00:07:22.608 : :Chapter 03
00:11:00.159 : :Chapter 04
00:14:59.523 : :Chapter 05
00:17:57.785 : :Chapter 06
00:22:03.321 : :Chapter 07
00:24:44.483 : :Chapter 08
00:27:49.876 : :Chapter 09
00:30:19.776 : :Chapter 10
00:34:56.010 : :Chapter 11
00:38:16.377 : :Chapter 12
00:43:10.087 : :Chapter 13
00:48:16.059 : :Chapter 14
00:51:35.300 : :Chapter 15
00:54:27.055 : :Chapter 16
00:57:18.101 : :Chapter 17
01:00:27.832 : :Chapter 18
01:04:34.912 : :Chapter 19
01:08:04.497 : :Chapter 20
01:12:08.282 : :Chapter 21
01:15:09.963 : :Chapter 22
01:19:10.162 : :Chapter 23
01:22:16.514 : :Chapter 24
01:24:49.542 : :Chapter 25
01:27:01.341 : :Chapter 26
01:30:49.569 : :Chapter 27
01:33:00.449 : :Chapter 28
01:39:58.242 : :Chapter 29
x265 [info]: HEVC encoder version 2.3+27-7e137e3ae083
x265 [info]: build info [Windows][GCC 5.3.1][64 bit] 10bit
x265 [info]: using cpu capabilities: MMX2 SSE2Fast SSSE3 SSE4.2 AVX AVX2 FMA3 LZCNT BMI2
x265 [info]: Main 10 profile, Level-4 (Main tier)
x265 [info]: Thread pool created using 4 threads
x265 [info]: Slices : 1
x265 [info]: frame threads / pool features : 2 / wpp(13 rows)
x265 [info]: Coding QT: max CU size, min CU size : 64 / 8
x265 [info]: Residual QT: max TU size, max depth : 32 / 1 inter / 1 intra
x265 [info]: ME / range / subpel / merge : star / 57 / 7 / 2
x265 [info]: Keyframe min / max / scenecut / bias: 23 / 250 / 40 / 5.00
x265 [info]: Lookahead / bframes / badapt : 40 / 6 / 2
x265 [info]: b-pyramid / weightp / weightb : 1 / 1 / 1
x265 [info]: References / ref-limit cu / depth : 5 / on / on
x265 [info]: AQ: mode / str / qg-size / cu-tree : 1 / 1.0 / 32 / 1
x265 [info]: Rate Control / qCompress : CRF-16.0 / 0.60
x265 [info]: tools: limit-modes rd=4 psy-rd=2.00 rdoq=2 psy-rdoq=1.00 rskip
x265 [info]: tools: signhide tmvp strong-intra-smoothing lslices=4
x265 [info]: tools: deblock(tC=-3:B=-3)
x265 [info]: frame I: 1604, Avg QP:13.28 kb/s: 18744.29
x265 [info]: frame P: 29281, Avg QP:14.89 kb/s: 11802.53
x265 [info]: frame B: 112935, Avg QP:19.46 kb/s: 2291.20
x265 [info]: Weighted P-Frames: Y:6.8% UV:5.3%
x265 [info]: Weighted B-Frames: Y:8.3% UV:6.6%
x265 [info]: consecutive B-frames: 14.5% 4.9% 5.0% 21.7% 9.4% 18.7% 25.7%
encoded 143820 frames in 147736.82s (0.97 fps), 4411.16 kb/s, Avg QP:18.46


_________________
Проголосуй за трекер Открытый торрент трекер - RUS-MEDIA.ORG

Проголосуй Открытый торрент трекер - RUS-MEDIA.ORG


Вернуться к началу
 Профиль Отправить личное сообщение  
 
   Похожие торренты   Автор   Торрент   Размер 
В этой теме нет новых непрочитанных сообщений. Фантастическая четверка / Fantastic Four (Джошуа Транк) [фантастика, боевик, приключения, 2015] BDRip 1080p, Dub+Sub [Лицензия]

Dracon

766 | 65

10.63 ГБ

В этой теме нет новых непрочитанных сообщений. Фантастическая четверка / Fantastic Four (Джошуа Транк) [фантастика, боевик, приключения, 2015] BDRip 1080p, dub [Чистый звук]

Dracon

3500 | 264

7.78 ГБ

В этой теме нет новых непрочитанных сообщений. Фантастическая четверка / Fantastic Four (Джошуа Транк) [фантастика, боевик, приключения, 2015] BDRemux 1080p, Dub+Sub [Лицензия]

Dracon

239 | 35

25.19 ГБ

В этой теме нет новых непрочитанных сообщений. Фантастическая четверка / Fantastic Four (Джошуа Транк) [фантастика, боевик, приключения, 2015] BDRip 720p, Dub+Sub [Лицензия]

Dracon

434 | 7

5.32 ГБ

В этой теме нет новых непрочитанных сообщений. Фантастическая четверка / Fantastic Four (Джошуа Транк) [фантастика, боевик, приключения, 2015] BDRip 720p, dub [Чистый звук]

Dracon

810 | 62

4.51 ГБ

В этой теме нет новых непрочитанных сообщений. Фантастическая четверка / Fantastic Four (Джошуа Транк) [фантастика, боевик, приключения, 2015] DVD5, Dub+Sub [Лицензия]

Dracon

147 | 16

4.38 ГБ

В этой теме нет новых непрочитанных сообщений. Фантастическая четверка / Fantastic Four (Джошуа Транк) [фантастика, боевик, приключения, 2015] HDRip, dub [Чистый звук]

Dracon

1580 | 10

1.45 ГБ


Начать новую тему Ответить на тему  [ 1 сообщение ] 




Для Мосгорсуда, Роскомнадзора и рекламодателей:: mosgorsud-torrent[собачка]yandex.ru
cron