Торрент файл
скачать торрент магнет ссылка Добавлен: 11 мар 2017, 21:53
Размер: 11.21 ГБ
Сидеров: 39
Личеров: 117
Статус: (salma3)
Автор

СообщениеДобавлено: 11 мар 2017, 21:53 

Не в сети
Супермодератор
Аватара пользователя
Дата регистрации:
15 фев 2012, 16:44
Возраст: 28
Спасибо: 7224 / 2147
Сообщения: 67920
Год выхода: 1996
Жанр: драма, мелодрама, комедия, спорт
Режиссер: Рон Шелтон

В ролях: Кевин Костнер, Дон Джонсон, Рени Руссо, Рекс Линн, Ричард "Чич" Марин, Джордж Перес, Лу Майерс, Майкл Милхоэн, Микки Джоунс, Деннис Беркли, Линда Харт, Ричард Лайнбэк

О фильме:
Бывший спортсмен отлично играющий в гольф в настоящее время остался у разбитого корыта. Все не ладится в его жизни. Денежные проблемы заставляют его подрабатывать учителем игры в гольф.

И у него появляется надежда осуществить мечту жизни: выиграть кубок на престижных соревнованиях в гольф. В этом ему помогает девушка, она придает ему уверенность в победе.



Страна: США
Продолжительность: 02:14:40
Перевод: Профессиональный многоголосый закадровый, Профессиональный двухголосый закадровый (Universal Channel), Авторский одноголосый закадровый (Ю.Живов, А.Попов, В.Горчаков)

Файл
Контейнер: mkv
Видео: MPEG-4 AVC / 9925 kbps / 1920x1080 / 23.976 fps / 16:9 / High Profile 4.0 [BLUEBIRD]
Звук:
Russian / Dolby Digital Audio / 5.1 / 48 kHz / 384 kbps (MVO)
Russian / Dolby Digital Audio / 2.0 / 48 kHz / 192 kbps (DVO Universal Channel)
Russian / Dolby Digital Audio / 2.0 / 48 kHz / 192 kbps (Юрий Живов)
Russian / Dolby Digital Audio / 2.0 / 48 kHz / 192 kbps (Алексей Попов)
Russian / Dolby Digital Audio / 2.0 / 48 kHz / 192 kbps (Василий Горчаков)
English / Dolby Digital Audio / 5.1 / 48 kHz / 384 kbps
English / Dolby Digital Audio / 2.0 / 48 kHz / 224 kbps
Субтитры: Russian, English
General
Unique ID : 226524499973059575870879014901415231415 (0xAA6B0821A7DFB893A4723FD3D1593FB7)
Complete name : D:TN_CP_1996_WEBRIP_1080P -BLUEBIRD.mkv
Format : Matroska
Format version : Version 4 / Version 2
File size : 11.2 GiB
Duration : 2 h 14 min
Overall bit rate mode : Variable
Overall bit rate : 11.9 Mb/s
Movie name : TIN_CUP_1996_WEBRIP_1080P -BLUEBIRD
Encoded date : UTC 2017-03-10 20:41:20
Writing application : mkvmerge v7.1.0 ('Good Love') 64bit built on Jul 27 2014 13:06:55
Writing library : libebml v1.3.0 + libmatroska v1.4.1

Video
ID : 1
Format : AVC
Format/Info : Advanced Video Codec
Format profile : [email protected]
Format settings, CABAC : Yes
Format settings, ReFrames : 4 frames
Codec ID : V_MPEG4/ISO/AVC
Duration : 2 h 14 min
Bit rate mode : Variable
Bit rate : 10.2 Mb/s
Maximum bit rate : 15.0 Mb/s
Width : 1 920 pixels
Height : 1 080 pixels
Display aspect ratio : 16:9
Frame rate mode : Constant
Frame rate : 23.976 (24000/1001) FPS
Color space : YUV
Chroma subsampling : 4:2:0
Bit depth : 8 bits
Scan type : Progressive
Bits/(Pixel*Frame) : 0.204
Stream size : 9.56 GiB (85%)
Title : TN_CP_1996_WEBRIP_1080P -BLUEBIRD
Writing library : x264 core 148 r2623 d5b2374
Encoding settings : cabac=1 / ref=4 / deblock=1:-1:-1 / analyse=0x3:0x133 / me=umh / subme=9 / psy=1 / psy_rd=1.00:0.15 / mixed_ref=1 / me_range=24 / chroma_me=1 / trellis=2 / 8x8dct=1 / cqm=0 / deadzone=21,11 / fast_pskip=1 / chroma_qp_offset=-3 / threads=34 / lookahead_threads=5 / sliced_threads=0 / nr=150 / decimate=1 / interlaced=0 / bluray_compat=0 / constrained_intra=0 / bframes=8 / b_pyramid=2 / b_adapt=2 / b_bias=0 / direct=3 / weightb=1 / open_gop=0 / weightp=2 / keyint=120 / keyint_min=61 / scenecut=0 / intra_refresh=0 / rc_lookahead=120 / rc=crf / mbtree=1 / crf=18.0 / qcomp=0.60 / qpmin=0 / qpmax=69 / qpstep=4 / vbv_maxrate=15000 / vbv_bufsize=31250 / crf_max=0.0 / nal_hrd=vbr / filler=0 / ip_ratio=1.40 / aq=3:1.00
Language : English
Default : Yes
Forced : No
Color range : Limited
Color primaries : BT.709
Transfer characteristics : BT.709
Matrix coefficients : BT.709

Audio #1
ID : 2
Format : AC-3
Format/Info : Audio Coding 3
Mode extension : CM (complete main)
Format settings, Endianness : Big
Codec ID : A_AC3
Duration : 2 h 14 min
Bit rate mode : Constant
Bit rate : 384 kb/s
Channel(s) : 6 channels
Channel positions : Front: L C R, Side: L R, LFE
Sampling rate : 48.0 kHz
Frame rate : 31.250 FPS (1536 spf)
Bit depth : 16 bits
Compression mode : Lossy
Stream size : 370 MiB (3%)
Title : MVO
Language : Russian
Default : Yes
Forced : No

Audio #2
ID : 3
Format : AC-3
Format/Info : Audio Coding 3
Mode extension : CM (complete main)
Format settings, Endianness : Big
Codec ID : A_AC3
Duration : 2 h 14 min
Bit rate mode : Constant
Bit rate : 192 kb/s
Channel(s) : 2 channels
Channel positions : Front: L R
Sampling rate : 48.0 kHz
Frame rate : 31.250 FPS (1536 spf)
Bit depth : 16 bits
Compression mode : Lossy
Stream size : 185 MiB (2%)
Title : DVO [Universal Canal]
Language : Russian
Default : No
Forced : No

Audio #3
ID : 4
Format : AC-3
Format/Info : Audio Coding 3
Mode extension : CM (complete main)
Format settings, Endianness : Big
Codec ID : A_AC3
Duration : 2 h 14 min
Bit rate mode : Constant
Bit rate : 192 kb/s
Channel(s) : 2 channels
Channel positions : Front: L R
Sampling rate : 48.0 kHz
Frame rate : 31.250 FPS (1536 spf)
Bit depth : 16 bits
Compression mode : Lossy
Stream size : 185 MiB (2%)
Title : Zhivov
Language : Russian
Default : No
Forced : No

Audio #4
ID : 5
Format : AC-3
Format/Info : Audio Coding 3
Mode extension : CM (complete main)
Format settings, Endianness : Big
Codec ID : A_AC3
Duration : 2 h 14 min
Bit rate mode : Constant
Bit rate : 192 kb/s
Channel(s) : 2 channels
Channel positions : Front: L R
Sampling rate : 48.0 kHz
Frame rate : 31.250 FPS (1536 spf)
Bit depth : 16 bits
Compression mode : Lossy
Stream size : 185 MiB (2%)
Title : Popov
Language : Russian
Default : No
Forced : No

Audio #5
ID : 6
Format : AC-3
Format/Info : Audio Coding 3
Mode extension : CM (complete main)
Format settings, Endianness : Big
Codec ID : A_AC3
Duration : 2 h 14 min
Bit rate mode : Constant
Bit rate : 192 kb/s
Channel(s) : 2 channels
Channel positions : Front: L R
Sampling rate : 48.0 kHz
Frame rate : 31.250 FPS (1536 spf)
Bit depth : 16 bits
Compression mode : Lossy
Stream size : 185 MiB (2%)
Title : Gorchakov
Language : Russian
Default : No
Forced : No

Audio #6
ID : 7
Format : AC-3
Format/Info : Audio Coding 3
Mode extension : CM (complete main)
Format settings, Endianness : Big
Codec ID : A_AC3
Duration : 2 h 14 min
Bit rate mode : Constant
Bit rate : 384 kb/s
Channel(s) : 6 channels
Channel positions : Front: L C R, Side: L R, LFE
Sampling rate : 48.0 kHz
Frame rate : 31.250 FPS (1536 spf)
Bit depth : 16 bits
Compression mode : Lossy
Stream size : 370 MiB (3%)
Title : [email protected]
Language : English
Default : No
Forced : No

Audio #7
ID : 8
Format : E-AC-3
Format/Info : Enhanced Audio Coding 3
Format settings, Endianness : Big
Codec ID : A_EAC3
Duration : 2 h 14 min
Bit rate mode : Constant
Bit rate : 224 kb/s
Channel(s) : 2 channels
Channel positions : Front: L R
Sampling rate : 48.0 kHz
Frame rate : 187.500 FPS (256 spf)
Compression mode : Lossy
Stream size : 216 MiB (2%)
Title : [email protected]
Language : English
Default : No
Forced : No

Text #1
ID : 9
Format : UTF-8
Codec ID : S_TEXT/UTF8
Codec ID/Info : UTF-8 Plain Text
Duration : 2 h 9 min
Bit rate : 92 b/s
Count of elements : 1710
Stream size : 87.7 KiB (0%)
Title : full
Language : Russian
Default : Yes
Forced : No

Text #2
ID : 10
Format : UTF-8
Codec ID : S_TEXT/UTF8
Codec ID/Info : UTF-8 Plain Text
Duration : 2 h 7 min
Bit rate : 63 b/s
Count of elements : 1877
Stream size : 59.1 KiB (0%)
Title : full
Language : English
Default : No
Forced : No

Text #3
ID : 11
Format : UTF-8
Codec ID : S_TEXT/UTF8
Codec ID/Info : UTF-8 Plain Text
Duration : 2 h 14 min
Bit rate : 82 b/s
Count of elements : 2646
Stream size : 81.4 KiB (0%)
Language : English
Default : No
Forced : No


_________________
Проголосуй за трекер Открытый торрент трекер - RUS-MEDIA.ORG

Проголосуй Открытый торрент трекер - RUS-MEDIA.ORG


Вернуться к началу
 Профиль Отправить личное сообщение  
 
   Похожие торренты   Автор   Торрент   Размер 
В этой теме нет новых непрочитанных сообщений. Жестяной кубок / Tin cup [драма, мелодрама, комедия, спорт, 1996] WEBRip-AVC, Mvo+Dvo+Avo+Sub

salma3

83 | 28

2.19 ГБ

В этой теме нет новых непрочитанных сообщений. Жестяной кубок / Tin cup [драма, мелодрама, комедия, спорт, 1996] WEBRip, Mvo

salma3

38 | 11

1.46 ГБ

В этой теме нет новых непрочитанных сообщений. Джерри Магуайер / Jerry Maguire [Комедия, драма, мелодрама, спорт, 1996] WEBRip 2160p, Dub

salma3

0 | 0

37.46 ГБ

В этой теме нет новых непрочитанных сообщений. Вечерняя звезда / The Evening Star [комедия, драма, мелодрама, 1996] WEBRip 1080p, Avo

salma3

4 | 6

11.06 ГБ

В этой теме нет новых непрочитанных сообщений. Джерри Магуайер / Jerry Maguire [драма, мелодрама, комедия, спорт, 1996] HDRip, Dub

salma3

98 | 10

1.46 ГБ

В этой теме нет новых непрочитанных сообщений. Джерри Магуайер / Jerry Maguire [драма, мелодрама, комедия, спорт, 1996] HDRip, Dub

salma3

34 | 10

2.19 ГБ

В этой теме нет новых непрочитанных сообщений. Без ума от крикета / Hattrick [Комедия, драма, мелодрама, спорт, 2007] WEBRip, Dvo

salma3

5 | 2

1.4 ГБ


Начать новую тему Ответить на тему  [ 1 сообщение ] 




Для Мосгорсуда, Роскомнадзора и рекламодателей:: mosgorsud-torrent[собачка]yandex.ru
cron