Торрент файл
скачать торрент магнет ссылка Добавлен: 25 фев 2017, 22:07
Размер: 3.62 ГБ
Сидеров: 37
Личеров: 11
Статус: (salma3)
Автор

СообщениеДобавлено: 25 фев 2017, 22:07 

Не в сети
Супермодератор
Аватара пользователя
Дата регистрации:
15 фев 2012, 16:44
Возраст: 28
Спасибо: 7223 / 2147
Сообщения: 67839
Год выхода: 2009
Жанр: ужасы, фантастика, боевик, триллер
Режиссер: Шелдон Уилсон

В ролях: Стивен Амелл, Грек Брик, Стивен Патрик Данн, Линли Холл, Лэнс Хенрииксен, Джина Холден, Холли О'Брайен, Кристофер Редман, Тим Розон, Сара Смолл

О фильме:
Спасательная команда с Земли, получив сигнал SOS, прибывает на планету Сириус 6-Б, считавшуюся безжизненной после уничтожения «крикунов». Исследователи во главе с лейтенантом Викторией Бронте быстро находят несколько выживших на отдаленном аванпосте, но что еще важнее, они обнаруживают, что развитие роботов достигло ужасающих высот, позволяющих им крайне убедительно принимать человеческий облик, а значит, до отбытия домой предстоит еще немало неприятных переживаний и буйства паранойи.



Страна: Канада
Студия: Pope Productions
Продолжительность: 01:34:48
Перевод: Многоголосый [закадровый]

Файл
Кодек: H.264
Качество: BDRip 720р от SuperMin
Видео: 1280x720 (16:9), 4566 kbps, 23.976 fps
Звук:
Русский (AC3, 6 ch, 448 Кбит/с)
Оригинал (AC-3, 6ch, 448 Кбит/с)
Субтитры: русские, английские

x264 [info]: frame I:1204 Avg QP:15.59 size:128261
x264 [info]: frame P:31724 Avg QP:16.20 size: 47312
x264 [info]: frame B:103598 Avg QP:19.44 size: 15393
x264 [info]: consecutive B-frames: 3.6% 3.8% 10.0% 12.6% 18.5% 46.7% 2.9% 0.9% 1.0%
x264 [total]: encoded 136526 frames, 6.79 fps, 4566.08 kb/s
General
Unique ID : 186666604450781876879678313292637662855 (0x8C6EAE28FC37799BA85E28A10EF3EE87)
Complete name : E:ФИЛЬМЫКрикуны-2.Охота.2009.x264.BDRip.720p.mkv
Format : Matroska
Format version : Version 4 / Version 2
File size : 3.62 GiB
Duration : 1 h 34 min
Overall bit rate : 5 464 kb/s
Movie name : Крикуны 2: Охота (2009) - #LORDKILL#
Encoded date : UTC 2017-02-20 14:23:08
Writing application : mkvmerge v9.5.0 ('Quiet Fire') 64bit
Writing library : libebml v1.3.4 + libmatroska v1.4.5

Video
ID : 1
Format : AVC
Format/Info : Advanced Video Codec
Format profile : [email protected]
Format settings, CABAC : Yes
Format settings, ReFrames : 9 frames
Codec ID : V_MPEG4/ISO/AVC
Duration : 1 h 34 min
Bit rate : 4 566 kb/s
Width : 1 280 pixels
Height : 720 pixels
Display aspect ratio : 16:9
Frame rate mode : Constant
Frame rate : 23.976 (24000/1001) FPS
Color space : YUV
Chroma subsampling : 4:2:0
Bit depth : 8 bits
Scan type : Progressive
Bits/(Pixel*Frame) : 0.207
Stream size : 3.03 GiB (84%)
Writing library : x264 core 146 r2538 121396c
Encoding settings : cabac=1 / ref=9 / deblock=1:-3:-3 / analyse=0x3:0x113 / me=umh / subme=10 / psy=1 / psy_rd=1.00:0.10 / mixed_ref=1 / me_range=32 / chroma_me=1 / trellis=2 / 8x8dct=1 / cqm=0 / deadzone=21,11 / fast_pskip=0 / chroma_qp_offset=-3 / threads=12 / lookahead_threads=2 / sliced_threads=0 / nr=0 / decimate=1 / interlaced=0 / bluray_compat=0 / constrained_intra=0 / bframes=8 / b_pyramid=2 / b_adapt=2 / b_bias=0 / direct=1 / weightb=1 / open_gop=0 / weightp=2 / keyint=240 / keyint_min=23 / scenecut=40 / intra_refresh=0 / rc=crf / mbtree=0 / crf=18.5 / qcomp=0.60 / qpmin=0 / qpmax=69 / qpstep=4 / ip_ratio=1.40 / pb_ratio=1.30 / aq=1:1.00
Default : Yes
Forced : No

Audio #1
ID : 2
Format : AC-3
Format/Info : Audio Coding 3
Mode extension : CM (complete main)
Format settings, Endianness : Big
Codec ID : A_AC3
Duration : 1 h 34 min
Bit rate mode : Constant
Bit rate : 448 kb/s
Channel(s) : 6 channels
Channel positions : Front: L C R, Side: L R, LFE
Sampling rate : 48.0 kHz
Frame rate : 31.250 FPS (1536 spf)
Bit depth : 16 bits
Compression mode : Lossy
Stream size : 304 MiB (8%)
Title : MVO
Language : Russian
Default : Yes
Forced : No

Audio #2
ID : 3
Format : AC-3
Format/Info : Audio Coding 3
Mode extension : CM (complete main)
Format settings, Endianness : Big
Codec ID : A_AC3
Duration : 1 h 34 min
Bit rate mode : Constant
Bit rate : 448 kb/s
Channel(s) : 6 channels
Channel positions : Front: L C R, Side: L R, LFE
Sampling rate : 48.0 kHz
Frame rate : 31.250 FPS (1536 spf)
Bit depth : 16 bits
Compression mode : Lossy
Stream size : 304 MiB (8%)
Language : English
Default : No
Forced : No

Text #1
ID : 4
Format : UTF-8
Codec ID : S_TEXT/UTF8
Codec ID/Info : UTF-8 Plain Text
Duration : 1 h 29 min
Bit rate : 74 b/s
Count of elements : 808
Stream size : 49.0 KiB (0%)
Language : Russian
Default : No
Forced : No

Text #2
ID : 5
Format : UTF-8
Codec ID : S_TEXT/UTF8
Codec ID/Info : UTF-8 Plain Text
Duration : 1 h 29 min
Bit rate : 42 b/s
Count of elements : 829
Stream size : 27.7 KiB (0%)
Language : English
Default : No
Forced : No

Menu
00:00:00.000 : en:Chapter 01
00:09:11.634 : en:Chapter 02
00:11:30.189 : en:Chapter 03
00:15:34.642 : en:Chapter 04
00:21:23.031 : en:Chapter 05
00:27:54.464 : en:Chapter 06
00:36:35.276 : en:Chapter 07
00:40:01.232 : en:Chapter 08
00:49:08.528 : en:Chapter 09
00:57:00.083 : en:Chapter 10
01:04:24.193 : en:Chapter 11
01:09:41.468 : en:Chapter 12
01:14:12.614 : en:Chapter 13
01:21:34.514 : en:Chapter 14
01:26:01.614 : en:Chapter 15
01:30:45.481 : en:Chapter 16


_________________
Проголосуй за трекер Открытый торрент трекер - RUS-MEDIA.ORG

Проголосуй Открытый торрент трекер - RUS-MEDIA.ORG


Вернуться к началу
 Профиль Отправить личное сообщение  
 
   Похожие торренты   Автор   Торрент   Размер 
В этой теме нет новых непрочитанных сообщений. Крикуны 2: Охота / Screamers 2: The Hunting [ужасы, фантастика, боевик, триллер, 2009] BDRip 1080p, Mvo+Sub

salma3

170 | 96

7.94 ГБ

В этой теме нет новых непрочитанных сообщений. Крикуны 2: Охота / Screamers 2: The Hunting [ужасы, фантастика, боевик, 2009] BDRip-AVC, Mvo

salma3

242 | 47

744.64 МБ

В этой теме нет новых непрочитанных сообщений. Крикуны 2: Охота / Screamers 2: The Hunting [ужасы, фантастика, боевик, триллер, 2009] BDRemux 1080p, Mvo+Sub

salma3

23 | 62

16.17 ГБ

В этой теме нет новых непрочитанных сообщений. Крикуны / Screamers [ужасы, фантастика, боевик, триллер, 1995] WEBRip 1080p, Dub+Mvo+Avo

salma3

7 | 0

13.16 ГБ

В этой теме нет новых непрочитанных сообщений. Крикуны / Screamers [ужасы, фантастика, боевик, 1995] WEB-DLRip-AVC, Dub

salma3

0 | 2

2.18 ГБ

В этой теме нет новых непрочитанных сообщений. Охота / The Hunting Party [боевик, драма, вестерн, 1971] BDRip, Mvo

salma3

127 | 17

1.45 ГБ

В этой теме нет новых непрочитанных сообщений. Охота / The Hunting Party [боевик, драма, вестерн, 1971] BDRip 1080p, Mvo

salma3

45 | 30

9.37 ГБ


Начать новую тему Ответить на тему  [ 1 сообщение ] 




Для Мосгорсуда, Роскомнадзора и рекламодателей:: mosgorsud-torrent[собачка]yandex.ru
cron