Торрент файл
скачать торрент магнет ссылка Добавлен: 08 янв 2017, 22:04
Размер: 4.17 ГБ
Сидеров: 42
Личеров: 23
Статус: (salma3)
Автор

СообщениеДобавлено: 08 янв 2017, 22:04 

Не в сети
Супермодератор
Аватара пользователя
Дата регистрации:
15 фев 2012, 16:44
Возраст: 28
Спасибо: 7290 / 2147
Сообщения: 70562
Год выхода: 2002
Жанр: Драма, комедия
Режиссер: Патриция Кардосо / Patricia Cardoso

В ролях: Америка Феррера, Люпе Онтиверос, Ингрид Олиу, Джордж Лопез, Брайан Сайтс, Соледад Ст. Хилейр, Лурдес Перез, Хорхе Сервера мл., Фелипе Де Альба, Хосе Жерардо Замора мл.

О фильме:
Покинуть отчий дом, поступить в колледж и начать самостоятельную жизнь? Или остаться дома, выйти замуж и работать на швейной фабрике, где работают сестра и мать? На первый взгляд может показаться, что выбор очевиден, но для восемнадцатилетней Аны, выбор, который ей предстоит сделать, определит ее дальнейшую судьбу. Жизнеутверждающая история о юной девушке из мексиканского квартала Лос-Анджелеса, вступающей во взрослую жизнь, полную соблазнов и разочарований, правдивый и ироничный рассказ о реальных проблемах реальных латиноамериканских женщин. Сейчас Ана шьет одежду для худых красоток, но скоро она поймет, что настоящие женщины дерзают, ошибаются, любят жизнь и, конечно же… всегда в теле!



Страна: США
Студия: HBO Films, Newmarket Films, LaVoo Productions
Продолжительность: 01:22:47.880
Перевод: Профессиональный (многоголосый закадровый) "Нова Медиа" по заказу "Amedia ТВ"

Файл
Кодек: h.264
Качество: HDTV 1080i Amedia HIT
Видео: 1920x1080 (16:9), 25.000 fps, AVC, ~6682 Kbps, 0.129 bits/pixel
Звук:
Русский, 48.0 KHz, MP2, 2 ch, 192 Kbps
Английский, 48.0 KHz, AC3, 2 ch, 192 Kbps
Субтитры: нет
фразы на испанском дублированы англ. прошитыми субтитрами
Общее
Уникальный идентификатор : 189731524153659069411377051300204394335 (0x8EBCF65E48FB46548B9D42E0C474375F)
Полное имя : E:FILMSNastojashhie_zhenshhiny_vsegda_v_tele.2002.HDTV1080i.mkv
Формат : Matroska
Версия формата : Version 4 / Version 2
Размер файла : 4,17 Гбайт
Продолжительность : 1 ч. 22 м.
Общий поток : 7209 Кбит/сек
Дата кодирования : UTC 2017-01-07 07:23:48
Программа кодирования : mkvmerge v9.7.1 ('Pandemonium') 64bit
Библиотека кодирования : libebml v1.3.4 + libmatroska v1.4.5

Видео
Идентификатор : 1
Формат : AVC
Формат/Информация : Advanced Video Codec
Профиль формата : [email protected]
Параметр CABAC формата : Да
Параметр ReFrames формата : 4 кадра
Идентификатор кодека : V_MPEG4/ISO/AVC
Продолжительность : 1 ч. 22 м.
Битрейт : 6823 Кбит/сек
Ширина : 1920 пикселей
Высота : 1080 пикселей
Соотношение сторон : 16:9
Режим частоты кадров : Постоянный
Частота кадров : 25,000 кадров/сек
Стандарт вещания : Component
Цветовое пространство : YUV
Субдискретизация насыщенности : 4:2:0
Битовая глубина : 8 бит
Тип развёртки : MBAFF
Бит/(Пиксели*Кадры) : 0.132
Размер потока : 3,95 Гбайт (95%)
Default : Нет
Forced : Нет
Цветовой диапазон : Limited
Основные цвета : BT.709
Характеристики трансфера : BT.709
Коэффициенты матрицы : BT.709

Аудио #1
Идентификатор : 2
Формат : MPEG Audio
Версия формата : Version 1
Профиль формата : Layer 2
Режим : Joint stereo
Расширение режима : Intensity Stereo + MS Stereo
Идентификатор кодека : A_MPEG/L2
Идентификатор кодека/Подсказка : MP2
Продолжительность : 1 ч. 22 м.
Вид битрейта : Постоянный
Битрейт : 192 Кбит/сек
Каналы : 2 канала
Частота : 48,0 КГц
Частота кадров : 41,667 кадра/сек (1152 spf)
Метод сжатия : С потерями
Размер потока : 114 Мбайт (3%)
Язык : Russian
Default : Да
Forced : Нет

Аудио #2
Идентификатор : 3
Формат : AC-3
Формат/Информация : Audio Coding 3
Расширение режима : CM (complete main)
Параметр Endianness формата : Big
Идентификатор кодека : A_AC3
Продолжительность : 1 ч. 22 м.
Вид битрейта : Постоянный
Битрейт : 192 Кбит/сек
Каналы : 2 канала
Расположение каналов : Front: L R
Частота : 48,0 КГц
Частота кадров : 31,250 кадров/сек (1536 spf)
Битовая глубина : 16 бит
Метод сжатия : С потерями
Размер потока : 114 Мбайт (3%)
Язык : English
Default : Нет
Forced : Нет


Релиз от: Temperest


_________________
Проголосуй за трекер Открытый торрент трекер - RUS-MEDIA.ORG

Проголосуй Открытый торрент трекер - RUS-MEDIA.ORG


Вернуться к началу
 Профиль Отправить личное сообщение  
 
   Похожие торренты   Автор   Торрент   Размер 
В этой теме нет новых непрочитанных сообщений. Настоящие женщины всегда в теле / Real Women Have Curves [Драма, комедия, 2002] HDTVRip 720p, Mvo

salma3

40 | 6

2.13 ГБ

В этой теме нет новых непрочитанных сообщений. Women Seeking Women 144 / Женщины В Поисках Женщин 144 (Girlfriends Films) [2017 г., All Girl / Lesbian, Made For Women, DVDRip]

salma3

5 | 1

1.2 ГБ

В этой теме нет новых непрочитанных сообщений. Игби идет ко дну / Igby Goes Down [Драма, мелодрама, комедия, 2002] HDTV 1080i, Mvo

salma3

0 | 2

4.02 ГБ

В этой теме нет новых непрочитанных сообщений. Женщины ХХ века / 20th Century Women [драма, комедия, 2016] WEBDLRip, Mvo

salma3

206 | 29

1.37 ГБ

В этой теме нет новых непрочитанных сообщений. Women Seeking Women 145 / Женщины В Поисках Женщин 145 (Girlfriends Films) [2017 г., All Girl / Lesbian, DVDRip]

max77777

4 | 2

1.14 ГБ

В этой теме нет новых непрочитанных сообщений. Женщины ХХ века / 20th Century Women [Драма, комедия, 2016] BDRip, Mvo [AlexFilm]

salma3

247 | 38

1.46 ГБ

В этой теме нет новых непрочитанных сообщений. Women Seeking Women 140 / Женщины В Поисках Женщин 140 (Girlfriends Films) [2017 г., All Girl / Lesbian, BigTits, DVDRip]

max77777

1 | 1

1.24 ГБ


Начать новую тему Ответить на тему  [ 1 сообщение ] 




Для Мосгорсуда, Роскомнадзора и рекламодателей:: mosgorsud-torrent[собачка]yandex.ru
cron