Торрент файл
скачать торрент магнет ссылка Добавлен: 11 дек 2016, 15:38
Размер: 6.98 ГБ
Сидеров: 43
Личеров: 40
Статус: (salma3)
Автор

СообщениеДобавлено: 11 дек 2016, 15:38 

Не в сети
Супермодератор
Аватара пользователя
Дата регистрации:
15 фев 2012, 16:44
Возраст: 28
Спасибо: 7223 / 2147
Сообщения: 67640
Год выхода: 1993
Жанр: Боевик
Режиссер: Роберт Рэдлер

В ролях: Эрик Робертс, Филлип Ри, Крис Пенн, Эдан Гросс, Ральф Мёллер, Мег Фостер, Сонни Лэндэм, Уэйн Ньютон, Бетти Карвальо, Саймон Ри

О фильме:
Чтобы стать чемпионами, члены американской команды по каратэ должны, преодолеть личные препятствия, проблемы.
Алекс, Томми и Трэвис попадают в трагические ситуации, и только преданность друг другу — своего рода семейственность — позволяют им стать триумфаторами Лас-Вегаса. Однако жестокое убийство одного из друзей побуждает оставшихся проявить боеспособность не только в спорте.

Страна: США
Продолжительность: 01:37:35
Перевод:
1. Профессиональный многоголосый закадровый
2. Авторский одноголосый закадровый (Гаврилов)
3. Авторский одноголосый закадровый (Горчаков)
4. Авторский одноголосый закадровый (Визгунов)
5. Авторский одноголосый закадровый (Володарский)

Файл
Кодек: x264, AVC
Качество: BDRip 1080p
Видео: 1920x1040, 9285 kbps, 25fps
Звук:
1. AC3, 192 kbps, 48 KHz, 2 channels
2. AC3, 192 kbps, 48 KHz, 2 channels
3. AC3, 192 kbps, 48 KHz, 2 channels
4. AC3, 192 kbps, 48 KHz, 2 channels
5. AC3, 192 kbps, 48 KHz, 2 channels
General
Unique ID : 181980608580911090005470859273306615846 (0x88E830B9E28ACCBE9C7E4DA3C4D7B026)
Complete name : Лучшие из лучших 2 [Best of the Best II, 1993] 1080p.mkv
Format : Matroska
Format version : Version 2
File size : 6.98 GiB
Duration : 1 h 37 min
Overall bit rate : 10.2 Mb/s
Encoded date : UTC 2016-11-28 17:00:14
Writing application : mkvmerge v4.2.0 ('No Talking') сборка от Jul 28 2010 18:38:23
Writing library : libebml v1.0.0 + libmatroska v1.0.0

Video
ID : 1
Format : AVC
Format/Info : Advanced Video Codec
Format profile : [email protected]
Format settings, CABAC : Yes
Format settings, ReFrames : 4 frames
Muxing mode : Header stripping
Codec ID : V_MPEG4/ISO/AVC
Duration : 1 h 37 min
Bit rate : 9 285 kb/s
Width : 1 920 pixels
Height : 1 040 pixels
Display aspect ratio : 1.85:1
Frame rate mode : Constant
Frame rate : 25.000 FPS
Color space : YUV
Chroma subsampling : 4:2:0
Bit depth : 8 bits
Scan type : Progressive
Bits/(Pixel*Frame) : 0.186
Stream size : 6.19 GiB (89%)
Title : Best of the Best II (1993)
Writing library : x264 core 148 r2705 3f5ed56
Encoding settings : cabac=1 / ref=4 / deblock=1:0:0 / analyse=0x3:0x133 / me=umh / subme=9 / psy=1 / psy_rd=1.00:0.00 / mixed_ref=1 / me_range=16 / chroma_me=1 / trellis=1 / 8x8dct=1 / cqm=0 / deadzone=21,11 / fast_pskip=0 / chroma_qp_offset=-2 / threads=18 / lookahead_threads=1 / sliced_threads=0 / nr=0 / decimate=1 / interlaced=0 / bluray_compat=0 / constrained_intra=0 / bframes=3 / b_pyramid=2 / b_adapt=2 / b_bias=0 / direct=3 / weightb=1 / open_gop=0 / weightp=2 / keyint=250 / keyint_min=25 / scenecut=40 / intra_refresh=0 / rc_lookahead=50 / rc=2pass / mbtree=1 / bitrate=9285 / ratetol=1.0 / qcomp=0.60 / qpmin=0 / qpmax=69 / qpstep=4 / cplxblur=20.0 / qblur=0.5 / ip_ratio=1.40 / aq=1:1.00
Language : English
Default : Yes
Forced : No

Audio #1
ID : 2
Format : AC-3
Format/Info : Audio Coding 3
Mode extension : CM (complete main)
Format settings, Endianness : Big
Muxing mode : Header stripping
Codec ID : A_AC3
Duration : 1 h 37 min
Bit rate mode : Constant
Bit rate : 192 kb/s
Channel(s) : 2 channels
Channel positions : Front: L R
Sampling rate : 48.0 kHz
Frame rate : 31.250 FPS (1536 spf)
Compression mode : Lossy
Stream size : 134 MiB (2%)
Title : Многоголосый
Language : Russian
Default : Yes
Forced : No

Audio #2
ID : 3
Format : AC-3
Format/Info : Audio Coding 3
Mode extension : CM (complete main)
Format settings, Endianness : Big
Muxing mode : Header stripping
Codec ID : A_AC3
Duration : 1 h 37 min
Bit rate mode : Constant
Bit rate : 192 kb/s
Channel(s) : 2 channels
Channel positions : Front: L R
Sampling rate : 48.0 kHz
Frame rate : 31.250 FPS (1536 spf)
Compression mode : Lossy
Stream size : 134 MiB (2%)
Title : Гаврилов
Language : Russian
Default : No
Forced : No

Audio #3
ID : 4
Format : AC-3
Format/Info : Audio Coding 3
Mode extension : CM (complete main)
Format settings, Endianness : Big
Muxing mode : Header stripping
Codec ID : A_AC3
Duration : 1 h 37 min
Bit rate mode : Constant
Bit rate : 192 kb/s
Channel(s) : 2 channels
Channel positions : Front: L R
Sampling rate : 48.0 kHz
Frame rate : 31.250 FPS (1536 spf)
Compression mode : Lossy
Stream size : 134 MiB (2%)
Title : Горчаков
Language : Russian
Default : No
Forced : No

Audio #4
ID : 5
Format : AC-3
Format/Info : Audio Coding 3
Mode extension : CM (complete main)
Format settings, Endianness : Big
Muxing mode : Header stripping
Codec ID : A_AC3
Duration : 1 h 37 min
Bit rate mode : Constant
Bit rate : 192 kb/s
Channel(s) : 2 channels
Channel positions : Front: L R
Sampling rate : 48.0 kHz
Frame rate : 31.250 FPS (1536 spf)
Compression mode : Lossy
Stream size : 134 MiB (2%)
Title : Визгунов
Language : Russian
Default : No
Forced : No

Audio #5
ID : 6
Format : AC-3
Format/Info : Audio Coding 3
Mode extension : CM (complete main)
Format settings, Endianness : Big
Muxing mode : Header stripping
Codec ID : A_AC3
Duration : 1 h 37 min
Bit rate mode : Constant
Bit rate : 192 kb/s
Channel(s) : 2 channels
Channel positions : Front: L R
Sampling rate : 48.0 kHz
Frame rate : 31.250 FPS (1536 spf)
Compression mode : Lossy
Stream size : 134 MiB (2%)
Title : Володарский
Language : Russian
Default : No
Forced : No

Menu
00:00:00.000 : en:00:00:00.000
00:10:01.960 : en:00:10:01.960
00:19:43.200 : en:00:19:43.200
00:28:15.880 : en:00:28:15.880
00:36:21.200 : en:00:36:21.200
00:47:20.880 : en:00:47:20.880
00:56:43.720 : en:00:56:43.720
01:06:42.680 : en:01:06:42.680
01:14:51.320 : en:01:14:51.320
01:20:04.880 : en:01:20:04.880
01:27:27.720 : en:01:27:27.720
01:33:00.560 : en:01:33:00.560


_________________
Проголосуй за трекер Открытый торрент трекер - RUS-MEDIA.ORG

Проголосуй Открытый торрент трекер - RUS-MEDIA.ORG


Вернуться к началу
 Профиль Отправить личное сообщение  
 
   Похожие торренты   Автор   Торрент   Размер 
В этой теме нет новых непрочитанных сообщений. Лучшие из лучших / Best of the Best [Боевик, спорт, 1989] BDRip 1080p, Dub+Avo

salma3

11 | 80

6.61 ГБ

В этой теме нет новых непрочитанных сообщений. Лучшие из лучших 2 / Best of the Best II [боевик, триллер, драма, криминал, 1993] HDRip, Mvo

salma3

84 | 23

1.44 ГБ

В этой теме нет новых непрочитанных сообщений. Лучшие из лучших 3 / Best of the Best 3: No Turning Back [Боевик, 1995] BDRip 1080p, Mvo+Dvo+2Avo+Sub

salma3

9 | 15

6.12 ГБ

В этой теме нет новых непрочитанных сообщений. Лучшие из лучших 4: Без предупреждения / Best of the Best 4: Without Warning [Боевик, триллер, приключения, 1998] BDRip 1080p, Mvo+Avo

salma3

25 | 28

8.43 ГБ

В этой теме нет новых непрочитанных сообщений. Сонатина / Sonatine [Боевик, драма, 1993] BDRip 1080p, Mvo

salma3

46 | 18

9.79 ГБ

В этой теме нет новых непрочитанных сообщений. Разрушитель / Demolition Man [фантастика, боевик, триллер, 1993] BDRip 1080p, Dub

salma3

14 | 3

10.88 ГБ

В этой теме нет новых непрочитанных сообщений. Легенда / Fong Sai Yuk [Боевик, боевые искусства, 1993] BDRip 1080p, Mvo

salma3

42 | 7

6.07 ГБ


Начать новую тему Ответить на тему  [ 1 сообщение ] 




Для Мосгорсуда, Роскомнадзора и рекламодателей:: mosgorsud-torrent[собачка]yandex.ru
cron