Торрент файл
скачать торрент магнет ссылка Добавлен: 05 ноя 2016, 01:25
Размер: 5.84 ГБ
Сидеров: 258
Личеров: 34
Автор

СообщениеДобавлено: 05 ноя 2016, 01:25 

Не в сети
Дата регистрации:
28 сен 2016, 18:10
Спасибо: 216 / 0
Сообщения: 1997
Информация о фильме
Название: Служанка
Оригинальное название: The Handmaiden / Agasshi
Страна: Южная Корея
Студия: Moho Films
Жанр: триллер, драма, мелодрама, эротика
Год выпуска: 2016
Продолжительность: 02:19:05
Перевод: Профессиональный (дублированный)
Cубтитры: Rus, Eng
Оригинальная аудиодорожка: Korean
Режиссер: Пак Чхан-ук / Park Chan-wook
В ролях: Ким Мин-хи, Ким Тхэ-ри, Ха Джон-у, Чо Джин-ун, Ким Хэ-сук, Мун Со-ри, Ли Ён-нё, Ли Дон-хви, Ю Мин-чхэ, Чо Ын-хён
Наталья Грачёва, Мария Иващенко, Юрий Деркач, Никита Прозоровский, Ольга Плетнёва
Описание: 30-е годы прошлого столетия. Корея, оккупированная японцами. Мошенник по прозвищу Граф предлагает бедной девушке Соке поучаствовать в деле, обещая солидный заработок. План афериста следующий. В огромном поместье, не общаясь с внешним миром, живет богатая японка Хидеко. Однако ее дядя, контролирующий каждый шаг девушки, изредка устраивает приемы для местных аристократов. Граф рассчитывает очаровать Хидеко, сбежать с ней в Японию, жениться, объявить ее сумасшедшей, упечь в дурдом и завладеть всем богатством. А Соке должна ему помочь, нанявшись в услужение к Хидеко. Что она и сделала. Но внезапно идеальный замысел Графа оказался под угрозой.

Тип релиза: BDRip 720p
Контейнер: MKV
Видео: MPEG-4 AVC, 4870 Кбит/с, 1280x536, 25.000 fps
Аудио: Rus, AC3, 384 kb/s (6 ch), 48 kHz
Аудио 2: Kor, AC3, 640 kb/s (6 ch), 48 kHz
Формат субтитров: softsub (SRT)
Раздача от:
x264 [info]: frame I:1376 Avg QP:13.86 size: 85169
x264 [info]: frame P:38538 Avg QP:15.22 size: 40742
x264 [info]: frame B:168711 Avg QP:15.54 size: 20834
Format : Matroska
Format version : Version 4 / Version 2
File size : 5.84 GiB
Duration : 2h 19mn
Overall bit rate : 6 014 Kbps
Movie name : Служанка. (Tonik)
Encoded date : UTC 2016-11-03 15:41:50
Writing application : mkvmerge v7.1.0 ('Good Love') 64bit built on Jul 27 2014 13:06:55
Writing library : libebml v1.3.0 + libmatroska v1.4.1
_STATISTICS_WRITING_APP : mkvmerge v7.1.0 ('Good Love') 64bit built on Jul 27 2014 13:06:55
_STATISTICS_WRITING_DATE_UTC : 2016-11-03 15:41:50
_STATISTICS_TAGS : BPS DURATION NUMBER_OF_FRAMES NUMBER_OF_BYTES
DURATION : 02:08:27.951000000
NUMBER_OF_FRAMES : 1314
NUMBER_OF_BYTES : 63802
Video
ID : 1
Format : AVC
Format/Info : Advanced Video Codec
Format profile : [email protected]
Format settings, CABAC : Yes
Format settings, ReFrames : 12 frames
Codec ID : V_MPEG4/ISO/AVC
Bit rate : 4 870 Kbps
Width : 1 280 pixels
Height : 536 pixels
Display aspect ratio : 2.40:1
Frame rate mode : Variable
Original frame rate : 25.000 fps
Color space : YUV
Chroma subsampling : 4:2:0
Bit depth : 8 bits
Scan type : Progressive
Writing library : x264 core 148 r2721kMod 72d53ab
Encoding settings : cabac=1 / ref=12 / deblock=1:-3:-3 / analyse=0x3:0x133 / me=umh / subme=10 / psy=1 / fade_compensate=0.00 / psy_rd=1.05:0.00 / mixed_ref=1 / me_range=32 / chroma_me=1 / trellis=2 / 8x8dct=1 / cqm=0 / deadzone=21,11 / fast_pskip=0 / chroma_qp_offset=-2 / threads=6 / lookahead_threads=1 / sliced_threads=0 / nr=0 / decimate=0 / interlaced=0 / bluray_compat=0 / constrained_intra=0 / fgo=0 / bframes=8 / b_pyramid=2 / b_adapt=2 / b_bias=0 / direct=3 / weightb=1 / open_gop=0 / weightp=2 / keyint=250 / keyint_min=25 / scenecut=40 / intra_refresh=0 / rc_lookahead=60 / rc=crf / mbtree=0 / crf=17.0000 / qcomp=0.60 / qpmin=0 / qpmax=69 / qpstep=4 / vbv_maxrate=62500 / vbv_bufsize=78125 / crf_max=0.0 / nal_hrd=none / filler=0 / ip_ratio=1.20 / pb_ratio=1.10 / aq=3:0.80
Default : Yes
Forced : No
Audio #1
ID : 2
Format : AC-3
Format/Info : Audio Coding 3
Mode extension : CM (complete main)
Format settings, Endianness : Big
Codec ID : A_AC3
Duration : 2h 19mn
Bit rate mode : Constant
Bit rate : 384 Kbps
Channel(s) : 6 channels
Channel positions : Front: L C R, Side: L R, LFE
Sampling rate : 48.0 KHz
Bit depth : 16 bits
Compression mode : Lossy
Stream size : 382 MiB (6%)
Title : iTunes
Language : Russian
Default : Yes
Forced : No
Audio #2
ID : 3
Format : AC-3
Format/Info : Audio Coding 3
Mode extension : CM (complete main)
Format settings, Endianness : Big
Codec ID : A_AC3
Duration : 2h 19mn
Bit rate mode : Constant
Bit rate : 640 Kbps
Channel(s) : 6 channels
Channel positions : Front: L C R, Side: L R, LFE
Sampling rate : 48.0 KHz
Bit depth : 16 bits
Compression mode : Lossy
Stream size : 637 MiB (11%)
Language : Korean
Default : No
Forced : No
Text #1
ID : 4
Format : UTF-8
Codec ID : S_TEXT/UTF8
Codec ID/Info : UTF-8 Plain Text
Language : Russian
Default : No
Forced : No
Text #2
ID : 5
Format : UTF-8
Codec ID : S_TEXT/UTF8
Codec ID/Info : UTF-8 Plain Text
Title : №2
Language : Russian
Default : No
Forced : No
Text #3
ID : 6
Format : UTF-8
Codec ID : S_TEXT/UTF8
Codec ID/Info : UTF-8 Plain Text
Language : English
Default : No
Forced : No
Menu
00:00:00.000 : en:00:00:00.000
00:12:47.320 : en:00:12:47.320
00:22:59.560 : en:00:22:59.560
00:33:29.360 : en:00:33:29.360
00:46:05.960 : en:00:46:05.960
00:57:54.640 : en:00:57:54.640
01:10:06.120 : en:01:10:06.120
01:22:14.520 : en:01:22:14.520
01:30:13.840 : en:01:30:13.840
01:44:47.280 : en:01:44:47.280
01:53:39.240 : en:01:53:39.240
02:05:33.080 : en:02:05:33.080





Вернуться к началу
 Профиль Отправить личное сообщение  
 
   Похожие торренты   Автор   Торрент   Размер 
В этой теме нет новых непрочитанных сообщений. Служанка / Ah-ga-ssi / The Handmaiden [драма, мелодрама, 2016] BDRip 720p, Dub [iTunes]

salma3

838 | 205

5.83 ГБ

В этой теме нет новых непрочитанных сообщений. Служанка / Agasshi [драма, мелодрама, 2016] BDRip 720p, Dub [iTunes]

salma3

85 | 20

5.83 ГБ

В этой теме нет новых непрочитанных сообщений. Недооформлен Служанка / Ah-ga-ssi (Драма, мелодрама, 2016) BDRip от MegaPeer | iTunes Данный торрент является блокированным, причина: недооформленный торрент

marya111

0 | 0

2.12 ГБ

В этой теме нет новых непрочитанных сообщений. Служанка / Agasshi [триллер, драма, мелодрама, 2016] HDRip, Dub [iTunes]

salma3

484 | 77

1.37 ГБ

В этой теме нет новых непрочитанных сообщений. Свет в океане / The Light Between Oceans (Драма, мелодрама, 2016) BDRip 720p от New-Team | iTunes

marya111

166 | 49

7.03 ГБ

В этой теме нет новых непрочитанных сообщений. Новая эра Z / The Girl with All the Gifts (ужасы, триллер, драма, 2016) BDRip 720p от New-Team | iTunes

marya111

558 | 155

5.34 ГБ

В этой теме нет новых непрочитанных сообщений. Служанка / Agasshi (драма, мелодрама, 2016) HDRip от Scarabey | iTunes

marya111

406 | 11

1.45 ГБ


Начать новую тему Ответить на тему  [ 1 сообщение ] 




Для Мосгорсуда, Роскомнадзора и рекламодателей:: mosgorsud-torrent[собачка]yandex.ru
cron