Торрент файл
скачать торрент магнет ссылка Добавлен: 01 окт 2016, 16:04
Размер: 12.49 ГБ
Сидеров: 50
Личеров: 27
Статус: (salma3)
Автор

СообщениеДобавлено: 01 окт 2016, 16:04 

Не в сети
Супермодератор
Аватара пользователя
Дата регистрации:
15 фев 2012, 16:44
Возраст: 28
Спасибо: 7290 / 2147
Сообщения: 70562
Год выхода: 1989
Жанр: Боевик, триллер, драма, криминал
Режиссер: Дж. Ли Томпсон

В ролях: Чарльз Бронсон, Джилл Ито, Перри Лопес, Синтия Гау, Хуан Фернандес, Вероника Каротерс, Джеймс Пакс, Пегги Липтон, Сай Ричардсон, Мэрион Юе, Билл МакКинни, Джералд Кастилло, Николь Эггерт, Эми Хэтэуэй, Мишель Вонг, Сэм Чю мл., Джим Ишида, Лейла Ли Олсен, Хелен Лин, Ричард Э. Батлер, Билл Чо Ли, Джером Тор, Майкл Чонм

О фильме:
В фильме две основные сюжетные линии. Лейтенанта Кроу (Чарльз Бронсон), стареющего копа из отдела нравов, который ведет жестокую борьбу с сутенером и наркоторговцем Дьюком (Хуан Фернандес). И японского служащего-извращенца Хироши Хада (Джеймс Пак), которого направляют в отделение крутой корпорации в Лос-Анджелес. Линии вначале соприкоснуться (когда японец попытается залезть под юбку дочери лейтенанта), а затем переплетутся – когда Дьюк похитит дочь японца, чтобы заставить ее заниматься проституцией. Чарлз Бронсон, несмотря на преклонный возраст, браво бьет морды и борется со всякими подонками (один эпизод с ботинками на балконе чего стоит)...



Страна: США
Продолжительность: 01:37:54
Перевод: Профессиональный многоголосый закадровый, Авторский одноголосый закадровый

Файл
Кодек: h.264
Качество: BDRip 1080p
Видео: MPEG-4 AVC, 13350 Кбит/с, 1920x1040, 23.976 кадр/с
Звук:
Русский (AC3, 2 ch, 192 Кбит/с) / Профессиональный многоголосый
Русский (AC3, 2 ch, 192 Кбит/с) / Профессиональный многоголосый (Петербург 5-й канал)
Русский (DTS, 2 ch, 1509 Кбит/с) / Авторский (А.Михалёв)
Русский (DTS, 2 ch, 1509 Кбит/с) / Авторский (Ю.Живов)
Английский (DTS, 2 ch, 1509 Кбит/с)
Субтитры: Английские
Семпл
Автор релиза - Silverok, За Bly-ray спасибо Spielllberg
Субтитры: S_TEXT/UTF8 (SRT) - Английские
Сохранены оригинальные главы как на Blu-ray
ЦитатаSpielllberg писал:

Дорожки №3,4 получены наложением чистых голосов на L,R каналы оригинального DTS-HD MA.
В голосе Живова был дефектный 30-секундный участок речи (восстановлению не подлежит) Сделана вставка из голоса Михалева.
Запись дорожки Петербург 5-й канал была сделана не с начала, несколько начальных минут имеют вставки из многоголоски №1.
Английские субтитры взяты с двд, поскольку на блюрей их не было.
x264 [info]: frame I:761 Avg QP:16.40 size:157932
x264 [info]: frame P:28809 Avg QP:17.42 size:103752
x264 [info]: frame B:111267 Avg QP:19.43 size: 59275
General
Unique ID : 246860486200597117711908572574845432844 (0xB9B799A9B85428C797402DC1432EF40C)
Complete name : D:uTorrentKindzhait.1989.BDRip.1080p.MediaClub.mkv
Format : Matroska
Format version : Version 4 / Version 2
File size : 12.5 GiB
Duration : 1 h 37 min
Overall bit rate : 18.3 Mb/s
Encoded date : UTC 2016-09-30 13:49:21
Writing application : mkvmerge v9.4.2 ('So High') 64bit
Writing library : libebml v1.3.4 + libmatroska v1.4.5
Video
ID : 1
Format : AVC
Format/Info : Advanced Video Codec
Format profile : [email protected]
Format settings, CABAC : Yes
Format settings, ReFrames : 4 frames
Codec ID : V_MPEG4/ISO/AVC
Duration : 1 h 37 min
Bit rate : 13.4 Mb/s
Width : 1 920 pixels
Height : 1 040 pixels
Display aspect ratio : 1.85:1
Frame rate mode : Constant
Frame rate : 23.976 (24000/1001) FPS
Color space : YUV
Chroma subsampling : 4:2:0
Bit depth : 8 bits
Scan type : Progressive
Bits/(Pixel*Frame) : 0.279
Stream size : 8.88 GiB (71%)
Title : BDRip by Silverok
Writing library : x264 core 148 r2638 7599210
Encoding settings : cabac=1 / ref=4 / deblock=1:-3:-3 / analyse=0x3:0x113 / me=umh / subme=10 / psy=1 / psy_rd=1.00:0.15 / mixed_ref=1 / me_range=48 / chroma_me=1 / trellis=2 / 8x8dct=1 / cqm=0 / deadzone=21,11 / fast_pskip=0 / chroma_qp_offset=-3 / threads=12 / lookahead_threads=3 / sliced_threads=0 / nr=0 / decimate=0 / interlaced=0 / bluray_compat=0 / constrained_intra=0 / bframes=16 / b_pyramid=2 / b_adapt=2 / b_bias=0 / direct=3 / weightb=1 / open_gop=0 / weightp=2 / keyint=240 / keyint_min=24 / scenecut=40 / intra_refresh=0 / rc_lookahead=40 / rc=2pass / mbtree=0 / bitrate=13350 / ratetol=1.0 / qcomp=0.60 / qpmin=0 / qpmax=69 / qpstep=4 / cplxblur=20.0 / qblur=0.5 / vbv_maxrate=62500 / vbv_bufsize=78125 / nal_hrd=none / filler=0 / ip_ratio=1.40 / pb_ratio=1.30 / aq=1:1.00
Default : Yes
Forced : No
Audio #1
ID : 2
Format : AC-3
Format/Info : Audio Coding 3
Mode extension : CM (complete main)
Format settings, Endianness : Big
Codec ID : A_AC3
Duration : 1 h 37 min
Bit rate mode : Constant
Bit rate : 192 kb/s
Channel(s) : 2 channels
Channel positions : Front: L R
Sampling rate : 48.0 kHz
Frame rate : 31.250 FPS (1536 spf)
Compression mode : Lossy
Stream size : 134 MiB (1%)
Title : Профессиональный многоголосый закадровый
Language : Russian
Default : Yes
Forced : No
Audio #2
ID : 3
Format : AC-3
Format/Info : Audio Coding 3
Mode extension : CM (complete main)
Format settings, Endianness : Big
Codec ID : A_AC3
Duration : 1 h 37 min
Bit rate mode : Constant
Bit rate : 192 kb/s
Channel(s) : 2 channels
Channel positions : Front: L R
Sampling rate : 48.0 kHz
Frame rate : 31.250 FPS (1536 spf)
Compression mode : Lossy
Stream size : 134 MiB (1%)
Title : Профессиональный многоголосый закадровый (Петербург 5-й канал)
Language : Russian
Default : No
Forced : No
Audio #3
ID : 4
Format : DTS
Format/Info : Digital Theater Systems
Mode : 16
Format settings, Endianness : Big
Codec ID : A_DTS
Duration : 1 h 37 min
Bit rate mode : Constant
Bit rate : 1 509 kb/s
Channel(s) : 2 channels
Channel positions : Front: L R
Sampling rate : 48.0 kHz
Frame rate : 93.750 FPS (512 spf)
Bit depth : 24 bits
Compression mode : Lossy
Stream size : 1.03 GiB (8%)
Title : Авторский (А.Михалёв)
Language : Russian
Default : No
Forced : No
Audio #4
ID : 5
Format : DTS
Format/Info : Digital Theater Systems
Mode : 16
Format settings, Endianness : Big
Codec ID : A_DTS
Duration : 1 h 37 min
Bit rate mode : Constant
Bit rate : 1 509 kb/s
Channel(s) : 2 channels
Channel positions : Front: L R
Sampling rate : 48.0 kHz
Frame rate : 93.750 FPS (512 spf)
Bit depth : 24 bits
Compression mode : Lossy
Stream size : 1.03 GiB (8%)
Title : Авторский (Ю.Живов)
Language : Russian
Default : No
Forced : No
Audio #5
ID : 6
Format : DTS
Format/Info : Digital Theater Systems
Mode : 16
Format settings, Endianness : Big
Codec ID : A_DTS
Duration : 1 h 37 min
Bit rate mode : Constant
Bit rate : 1 509 kb/s
Channel(s) : 2 channels
Channel positions : Front: L R
Sampling rate : 48.0 kHz
Frame rate : 93.750 FPS (512 spf)
Bit depth : 24 bits
Compression mode : Lossy
Stream size : 1.03 GiB (8%)
Language : English
Default : No
Forced : No
Text
ID : 7
Format : UTF-8
Codec ID : S_TEXT/UTF8
Codec ID/Info : UTF-8 Plain Text
Language : English
Default : Yes
Forced : No
Menu
00:00:00.000 : en:
00:00:10.926 : en:
00:14:46.176 : en:
00:24:55.911 : en:
00:38:19.255 : en:
00:49:41.143 : en:
01:00:52.564 : en:
01:11:39.752 : en:
01:24:04.787 : en:

Релиз от: | Silverok


_________________
Проголосуй за трекер Открытый торрент трекер - RUS-MEDIA.ORG

Проголосуй Открытый торрент трекер - RUS-MEDIA.ORG


Вернуться к началу
 Профиль Отправить личное сообщение  
 
   Похожие торренты   Автор   Торрент   Размер 
В этой теме нет новых непрочитанных сообщений. Кинджайт: Запретные темы / Kinjite: Forbidden Subjects [Драма, триллер, 1989] BDRip-AVC, Mvo

salma3

8 | 7

3.48 ГБ

В этой теме нет новых непрочитанных сообщений. Запретные cемейные pоманы 3 / Forbidden Family Affairs 3 (2016) WEBRip

salma3

9 | 2

1.74 ГБ

В этой теме нет новых непрочитанных сообщений. Жестокий полицейский / Violent cop [боевик, триллер, драма, криминал, 1989] BDRip 720p, Dvo+Sub

salma3

71 | 14

6.33 ГБ

В этой теме нет новых непрочитанных сообщений. Убей меня снова / Kill Me Again [Боевик, триллер, драма, криминал, 1989] BDRip, Mvo

salma3

0 | 1

1.45 ГБ

В этой теме нет новых непрочитанных сообщений. Каратель / The Punisher [боевик, триллер, драма, 1989] BDRip-HEVC 1080p, Mvo

salma3

0 | 0

5.76 ГБ

В этой теме нет новых непрочитанных сообщений. Слепая ярость / Blind Fury [боевик, триллер, драма, комедия, криминал, 1989] Blu-ray 1080p, Dub+Mvo+Avo

salma3

11 | 4

20.3 ГБ

В этой теме нет новых непрочитанных сообщений. Черный дождь / Black Rain [Боевик, триллер, драма, криминал, 1989] BDRip 720p, Mvo

salma3

15 | 12

11.22 ГБ


Начать новую тему Ответить на тему  [ 1 сообщение ] 




Для Мосгорсуда, Роскомнадзора и рекламодателей:: mosgorsud-torrent[собачка]yandex.ru
cron