Торрент файл
скачать торрент магнет ссылка Добавлен: 23 июн 2016, 21:08
Размер: 5.48 ГБ
Сидеров: 19
Личеров: 0
Автор

СообщениеДобавлено: 23 июн 2016, 21:08 

Не в сети
Супермодератор
Аватара пользователя
Дата регистрации:
15 фев 2012, 16:44
Возраст: 28
Спасибо: 7285 / 2147
Сообщения: 70380
Год выхода: 1989
Жанр: комедия
Режиссер: Ховард Зифф

В ролях: Майкл Китон, Кристофер Ллойд, Питер Бойл, Стефен Ферст, Деннис Буцикарис, Лоррейн Бракко, Майло О’Ши, Филип Боско, Джеймс Римар, Билл Гоффи

О фильме:
Фильм о четырех психически больных, отправившихся на бейсбольный матч и по дороге потерявших своего психиатра. Билли, патологический лжец с болезненной склонностью к паникерству, заблудился в Нью-Йорке вместе со своими не совсем адекватными товарищами: Генри, придурком-ловкачом, Джеком, бывшим высокопоставленным рекламистом, считающим себя Христом, и Альбертом, кататоником, проходящим курс психоанализа…



Страна: США
Студия: Imagine Entertainment, Universal Pictures
Продолжительность: 01:52:21
Перевод: Профессиональный (многоголосый, закадровый) CTC + Профессиональный (многоголосый, закадровый) + Авторский (одноголосый, закадровый) Андрей Гаврилов + Авторский (одноголосый, закадровый) Алексей Михалев
Файл
Формат: Matroska
Видео: 1280х694 at 23.976 fps, [email protected], ~5889 kbps avg
Аудио#1: Russian: 48 kHz, AC3, 2/0 (L,R) ch, ~192.00 kbps avg |Многоголосый закадровый, CTC|
Аудио#2: Russian: 48 kHz, AC3, 2/0 (L,R) ch, ~192.00 kbps avg |Многоголосый закадровый|
Аудио#3: Russian: 48 kHz, AC3, 2/0 (L,R) ch, ~192.00 kbps avg |Авторский, А.Гаврилов|
Аудио#4: Russian: 48 kHz, AC3, 2/0 (L,R) ch, ~192.00 kbps avg |Авторский, А.Михалев|
Аудио#5: English: 48 kHz, AC3, 2/0 (L,R) ch, ~192.00 kbps avg
Субтитры: English
Общее
Уникальный идентификатор : 242372852190439397781219205598973878637 (0xB6575039477818B48357B43CE4D1616D)
Полное имя : Команда мечты.1989.BDRip.720p.mkv
Формат : Matroska
Версия формата : Version 4 / Version 2
Размер файла : 5,48 Гбайт
Продолжительность : 1 ч. 52 м.
Общий поток : 6988 Кбит/сек
Дата кодирования : UTC 2016-06-20 03:08:38
Программа кодирования : mkvmerge v8.2.0 ('World of Adventure') 64bit
Библиотека кодирования : libebml v1.3.1 + libmatroska v1.4.2
Видео
Идентификатор : 1
Формат : AVC
Формат/Информация : Advanced Video Codec
Профиль формата : [email protected]
Параметр CABAC формата : Да
Параметр ReFrames формата : 9 кадров
Идентификатор кодека : V_MPEG4/ISO/AVC
Продолжительность : 1 ч. 52 м.
Битрейт : 5889 Кбит/сек
Ширина : 1280 пикселей
Высота : 694 пикселя
Соотношение сторон : 1,85:1
Режим частоты кадров : Постоянный
Частота кадров : 23,976 кадра/сек
Цветовое пространство : YUV
Субдискретизация насыщенности : 4:2:0
Битовая глубина : 8 бит
Тип развёртки : Прогрессивная
Бит/(Пиксели*Кадры) : 0.276
Размер потока : 4,62 Гбайт (84%)
Библиотека кодирования : x264 core 146 r2538 121396c
Настройки программы : cabac=1 / ref=9 / deblock=1:-3:-3 / analyse=0x3:0x113 / me=umh / subme=10 / psy=1 / psy_rd=1.00:0.15 / mixed_ref=1 / me_range=32 / chroma_me=1 / trellis=2 / 8x8dct=1 / cqm=0 / deadzone=21,11 / fast_pskip=1 / chroma_qp_offset=-3 / threads=6 / lookahead_threads=1 / sliced_threads=0 / nr=0 / decimate=1 / interlaced=0 / bluray_compat=0 / constrained_intra=0 / bframes=10 / b_pyramid=2 / b_adapt=2 / b_bias=0 / direct=1 / weightb=1 / open_gop=0 / weightp=2 / keyint=230 / keyint_min=23 / scenecut=40 / intra_refresh=0 / rc_lookahead=40 / rc=crf / mbtree=0 / crf=19.0 / qcomp=0.60 / qpmin=0 / qpmax=69 / qpstep=4 / vbv_maxrate=40000 / vbv_bufsize=50000 / crf_max=0.0 / nal_hrd=none / filler=0 / ip_ratio=1.40 / pb_ratio=1.30 / aq=1:1.00
Язык : English
Default : Да
Forced : Нет
Аудио #1
Идентификатор : 2
Формат : AC-3
Формат/Информация : Audio Coding 3
Расширение режима : CM (complete main)
Параметр Endianness формата : Big
Идентификатор кодека : A_AC3
Продолжительность : 1 ч. 52 м.
Вид битрейта : Постоянный
Битрейт : 192 Кбит/сек
Каналы : 2 канала
Расположение каналов : Front: L R
Частота : 48,0 КГц
Метод сжатия : С потерями
Размер потока : 154 Мбайт (3%)
Заголовок : MVO (CTC)
Язык : Russian
Default : Да
Forced : Нет
Аудио #2
Идентификатор : 3
Формат : AC-3
Формат/Информация : Audio Coding 3
Расширение режима : CM (complete main)
Параметр Endianness формата : Big
Идентификатор кодека : A_AC3
Продолжительность : 1 ч. 52 м.
Вид битрейта : Постоянный
Битрейт : 192 Кбит/сек
Каналы : 2 канала
Расположение каналов : Front: L R
Частота : 48,0 КГц
Метод сжатия : С потерями
Размер потока : 154 Мбайт (3%)
Заголовок : MVO
Язык : Russian
Default : Нет
Forced : Нет
Аудио #3
Идентификатор : 4
Формат : AC-3
Формат/Информация : Audio Coding 3
Расширение режима : CM (complete main)
Параметр Endianness формата : Big
Идентификатор кодека : A_AC3
Продолжительность : 1 ч. 52 м.
Вид битрейта : Постоянный
Битрейт : 192 Кбит/сек
Каналы : 2 канала
Расположение каналов : Front: L R
Частота : 48,0 КГц
Метод сжатия : С потерями
Размер потока : 154 Мбайт (3%)
Заголовок : AVO (Андрей Гаврилов)
Язык : Russian
Default : Нет
Forced : Нет
Аудио #4
Идентификатор : 5
Формат : AC-3
Формат/Информация : Audio Coding 3
Расширение режима : CM (complete main)
Параметр Endianness формата : Big
Идентификатор кодека : A_AC3
Продолжительность : 1 ч. 52 м.
Вид битрейта : Постоянный
Битрейт : 192 Кбит/сек
Каналы : 2 канала
Расположение каналов : Front: L R
Частота : 48,0 КГц
Метод сжатия : С потерями
Размер потока : 154 Мбайт (3%)
Заголовок : AVO (Алексей Михалёв)
Язык : Russian
Default : Нет
Forced : Нет
Аудио #5
Идентификатор : 6
Формат : AC-3
Формат/Информация : Audio Coding 3
Расширение режима : CM (complete main)
Параметр Endianness формата : Big
Идентификатор кодека : A_AC3
Продолжительность : 1 ч. 52 м.
Вид битрейта : Постоянный
Битрейт : 192 Кбит/сек
Каналы : 2 канала
Расположение каналов : Front: L R
Частота : 48,0 КГц
Метод сжатия : С потерями
Размер потока : 154 Мбайт (3%)
Заголовок : original
Язык : English
Default : Нет
Forced : Нет
Текст
Идентификатор : 7
Формат : UTF-8
Идентификатор кодека : S_TEXT/UTF8
Идентификатор кодека/Информация : UTF-8 Plain Text
Заголовок : английские (для слабослышащих)
Язык : English
Default : Нет
Forced : Нет


_________________
Проголосуй за трекер Открытый торрент трекер - RUS-MEDIA.ORG

Проголосуй Открытый торрент трекер - RUS-MEDIA.ORG


Вернуться к началу
 Профиль Отправить личное сообщение  
 
   Похожие торренты   Автор   Торрент   Размер 
В этой теме нет новых непрочитанных сообщений. Команда мечты / The Dream Team [комедия, 1989] WEB-DL 1080p, Mvo+Avo+Sub

salma3

33 | 4

4.7 ГБ

В этой теме нет новых непрочитанных сообщений. Команда мечты / La Dream Team [комедия, 2016] BDRip 720p, Mvo

salma3

70 | 25

4.26 ГБ

В этой теме нет новых непрочитанных сообщений. Команда мечты / La Dream Team [комедия, 2016] HDRip, Mvo

salma3

16 | 1

1.46 ГБ

В этой теме нет новых непрочитанных сообщений. Команда мечты / La Dream Team [комедия, 2016] WEB-DLRip, Mvo [Официальный звук]

salma3

352 | 57

1.37 ГБ

В этой теме нет новых непрочитанных сообщений. Лазерная команда / Lazer Team [фантастика, боевик, комедия, 2015] BDRip 720p, Mvo

salma3

63 | 26

4.32 ГБ

В этой теме нет новых непрочитанных сообщений. Призрачная команда / The Scream Team [Комедия, фэнтези, семейный, 2002] WEBRip 720p, Mvo+Sub

salma3

139 | 48

3.2 ГБ

В этой теме нет новых непрочитанных сообщений. Лазерная команда / Lazer Team [фантастика, боевик, комедия, 2015] BDRip 1080p, Mvo

salma3

83 | 38

7.77 ГБ


Начать новую тему Ответить на тему  [ 1 сообщение ] 




Для Мосгорсуда, Роскомнадзора и рекламодателей:: mosgorsud-torrent[собачка]yandex.ru
cron