Торрент файл
скачать торрент магнет ссылка Добавлен: 04 июн 2016, 14:41
Размер: 20.77 ГБ
Сидеров: 10
Личеров: 3
Автор

СообщениеДобавлено: 04 июн 2016, 14:41 

Не в сети
Супермодератор
Аватара пользователя
Дата регистрации:
15 фев 2012, 16:44
Возраст: 28
Спасибо: 7290 / 2147
Сообщения: 70815
Царь обезьян: начало легенды / Xi you ji zhi: Sun Wukong san da Baigu Jing

Перевод: Любительский (двухголосый)
Субтитры: русские (форсированные на надписи), английские (полные)
Формат: BD Remux, MKV, H.264, AC3/DTS-HD (MA)
Страна: Китай, США
Режиссер: Чин Поу-сои
Жанр: фэнтези, боевик, приключения
Продолжительность: 01:59:08
Год выпуска: 2016

Роли озвучивали: Аарон Квок, Уильям Фэн, Гун Ли, Келли Чен, Чун Хим Ло, Лю Вэй, Фэй Сян, Сяо Шэнь-Ян

Описание: В этой части фильма зрителю предстоит узнать, как зародилась легенда про непобедимого Короля обезьян.


Рейтинг на КиноПоиск: 6.372
Рейтинг на IMDb: 6.0/10



Видео: 1920x1080p (16:9), 23.976 fps, AVC MPEG-4 (x264), , ~22.4 Mbps avg., 0.450 Bits/(Pixel*Frame)
Аудио#1: русский 48.0 KHz, AC3, 6 ch, 448 kbps[Любительский (двухголосый)/Ворон и Sandairina/]
Аудио#2: китайский 48.0 KHz, DTS-HD (MA), 8 ch, 1 639 kbps (DTS Core: 48.0 KHz, 6 ch, 1 510 kbps.)[оригинал]

General
Unique ID : 246966107091154128190627621391893221607 (0xB9CBF12CC80980E6AB00ED38437350E7)
Complete name : D:\загрузка\sun_wukong_san_da_baigu_jing_[tfile.ru].mkv
Format : Matroska
Format version : Version 4 / Version 2
File size : 20.8 GiB
Duration : 1h 59mn
Overall bit rate mode : Variable
Overall bit rate : 25.0 Mbps
Movie name : The.Monkey.King.2.2016.BDREMUX.1080p
Encoded date : UTC 2016-05-20 18:09:45
Writing application : mkvmerge v8.5.2 ('Crosses') 64bit
Writing library : libebml v1.3.3 + libmatroska v1.4.4
DURATION : 01:51:21.410000000
NUMBER_OF_FRAMES : 920
NUMBER_OF_BYTES : 54707
_STATISTICS_WRITING_APP : mkvmerge v8.5.2 ('Crosses') 64bit
_STATISTICS_WRITING_DATE_UTC : 2016-05-20 18:09:45
_STATISTICS_TAGS : BPS DURATION NUMBER_OF_FRAMES NUMBER_OF_BYTES

Video
ID : 1
Format : AVC
Format/Info : Advanced Video Codec
Format profile :
Format settings, CABAC : Yes
Format settings, ReFrames : 4 frames
Codec ID : V_MPEG4/ISO/AVC
Duration : 1h 59mn
Bit rate mode : Variable
Bit rate : 22.4 Mbps
Maximum bit rate : 23.0 Mbps
Width : 1 920 pixels
Height : 1 080 pixels
Display aspect ratio : 16:9
Frame rate : 23.976 fps
Standard : NTSC
Color space : YUV
Chroma subsampling : 4:2:0
Bit depth : 8 bits
Scan type : Progressive
Bits/(Pixel*Frame) : 0.450
Stream size : 18.6 GiB (90%)
Language : Chinese
Default : No
Forced : No
DURATION : 01:59:08.141000000
NUMBER_OF_FRAMES : 171384
NUMBER_OF_BYTES : 16864497854
_STATISTICS_WRITING_APP : mkvmerge v8.5.2 ('Crosses') 64bit
_STATISTICS_WRITING_DATE_UTC : 2016-05-20 18:09:45
_STATISTICS_TAGS : BPS DURATION NUMBER_OF_FRAMES NUMBER_OF_BYTES
Color primaries : BT.709-5, BT.1361, IEC 61966-2-4, SMPTE RP177
Transfer characteristics : BT.709-5, BT.1361
Matrix coefficients : BT.709-5, BT.1361, IEC 61966-2-4 709, SMPTE RP177

Audio #1
ID : 2
Format : AC-3
Format/Info : Audio Coding 3
Mode extension : CM (complete main)
Codec ID : A_AC3
Duration : 1h 59mn
Bit rate mode : Constant
Bit rate : 448 Kbps
Channel(s) : 6 channels
Channel positions : Front: L C R, Side: L R, LFE
Sampling rate : 48.0 KHz
Bit depth : 16 bits
Compression mode : Lossy
Stream size : 382 MiB (2%)
Title : Ворон и Sandairina
Language : Russian
Default : Yes
Forced : No
DURATION : 01:59:08.171000000
NUMBER_OF_FRAMES : 670141
NUMBER_OF_BYTES : 5033533964
_STATISTICS_WRITING_APP : mkvmerge v8.5.2 ('Crosses') 64bit
_STATISTICS_WRITING_DATE_UTC : 2016-05-20 18:09:45
_STATISTICS_TAGS : BPS DURATION NUMBER_OF_FRAMES NUMBER_OF_BYTES

Audio #2
ID : 3
Format : DTS
Format/Info : Digital Theater Systems
Format profile : MA / Core
Codec ID : A_DTS
Duration : 1h 59mn
Bit rate mode : Variable
Bit rate : 1 639 Kbps / 1 510 Kbps
Channel(s) : 8 channels / 6 channels
Channel positions : Front: L C R, Side: L R, Back: L R, LFE / Front: L C R, Side: L R, LFE
Sampling rate : 48.0 KHz
Bit depth : 24 bits
Compression mode : Lossless / Lossy
Language : Chinese
Default : No
Forced : No

Text #1
ID : 4
Format : ASS
Codec ID : S_TEXT/ASS
Codec ID/Info : Advanced Sub Station Alpha
Compression mode : Lossless
Title : форсированный
Language : Russian
Default : Yes
Forced : Yes

Text #2
ID : 5
Format : ASS
Codec ID : S_TEXT/ASS
Codec ID/Info : Advanced Sub Station Alpha
Compression mode : Lossless
Title : Перевод - Игра21
Language : Russian
Default : No
Forced : No

Text #3
ID : 6
Format : UTF-8
Codec ID : S_TEXT/UTF8
Codec ID/Info : UTF-8 Plain Text
Language : English
Default : No
Forced : No

Menu
00:00:00.000 : en:00:00:00
00:07:55.224 : en:00:07:55
00:14:17.356 : en:00:14:17
00:21:08.684 : en:00:21:08
00:28:40.677 : en:00:28:40
00:33:37.473 : en:00:33:37
00:38:47.116 : en:00:38:47
00:43:08.460 : en:00:43:08
00:48:57.059 : en:00:48:57
00:52:17.884 : en:00:52:17
00:58:16.284 : en:00:58:16
01:04:08.845 : en:01:04:08
01:09:12.648 : en:01:09:12
01:13:05.339 : en:01:13:05
01:21:17.956 : en:01:21:17
01:26:48.244 : en:01:26:48
01:32:24.705 : en:01:32:24
01:37:28.551 : en:01:37:28
01:43:37.336 : en:01:43:37
01:50:27.329 : en:01:50:27











_________________
Проголосуй за трекер Открытый торрент трекер - RUS-MEDIA.ORG

Проголосуй Открытый торрент трекер - RUS-MEDIA.ORG


Вернуться к началу
 Профиль Отправить личное сообщение  
 
   Похожие торренты   Автор   Торрент   Размер 
В этой теме нет новых непрочитанных сообщений. Царь обезьян: Начало легенды / Король обезьян 2 / Xi you ji zhi: Sun Wukong san da Baigu Jing [Фэнтези, боевик, приключения, 2016] HDRip, Dvo

salma3

481 | 31

1.46 ГБ

В этой теме нет новых непрочитанных сообщений. Царь обезьян: Царство женщин / Xi you ji nu er guo [фэнтези, боевик, приключения, комедия, 2018] BDRip 1080p, Mvo [3D-Video]

salma3

76 | 36

14.53 ГБ

В этой теме нет новых непрочитанных сообщений. Король обезьян: Начало / The Monkey King the Legend Begins [фэнтези, боевик, приключения, 2016] WEBRip, Avo

salma3

774 | 23

1.46 ГБ

В этой теме нет новых непрочитанных сообщений. Ночные стражи [Фэнтези, боевик, триллер, 2016] Blu-Ray Remux 1080p, [Лицензия]

salma3

4 | 2

18.9 ГБ

В этой теме нет новых непрочитанных сообщений. Бен-Гур / Ben-Hur [2D] [боевик, драма, приключения, 2016] BD Remux CEE 1080p, Dub+Sub [Лицензия]

salma3

27 | 25

30.78 ГБ

В этой теме нет новых непрочитанных сообщений. Укун / Wukong [фэнтези, боевик, мелодрама, 2017] WEBDLRip, Mvo

salma3

317 | 45

1.38 ГБ

В этой теме нет новых непрочитанных сообщений. Изгой-один: Звёздные войны. Истории / Rogue One: A Star Wars Story [2016] ( Гарет Эдвардс) [2016, Фантастика, боевик, приключения , Blu-Ray Remux 1080p] [DD5.1] [Dub Rus, Englis + Subs Rus, ENG] [ iTunes]

Враг Нароода

1 | 0

33.39 ГБ


Начать новую тему Ответить на тему  [ 1 сообщение ] 




Для Мосгорсуда, Роскомнадзора и рекламодателей:: mosgorsud-torrent[собачка]yandex.ru
cron