Торрент файл
скачать торрент магнет ссылка Добавлен: 15 май 2016, 11:46
Размер: 14.22 ГБ
Сидеров: 177
Личеров: 29
Автор

СообщениеДобавлено: 15 май 2016, 11:46 

Не в сети
Супермодератор
Аватара пользователя
Дата регистрации:
15 фев 2012, 16:44
Возраст: 28
Спасибо: 7223 / 2147
Сообщения: 67788
Год выхода: 2016
Жанр: Боевик, триллер, драма, история
Режиссер: Крэйг Гиллеспи

В ролях: Крис Пайн, Кейси Аффлек, Бен Фостер, Эрик Бана, Холлидей Грейнджер, Джон Ортис, Кайл Галлнер, Джон Магаро, Грэм МакТавиш, Майкл Рэймонд-Джеймс, Бо Напп, Джош Стюарт, Абрахам Бенруби, Кейнан Лонсдейл, Рэйчел Броснахэн, Бенжамин Колдык, Мэттью Мехер, Джесси Габбар, Александр Кук, Дэнни Коннелли

О фильме:
18 февраля 1952 года на побережье Новой Англии обрушился сильнейший ураган. Танкер «Пендлтон», направлявшийся в Бостон, был буквально разорван на две части и тридцать два моряка оказались пойманными в ловушку на тонущем судне. Старший ассистент инженера Рэй Сайберт взял в свои руки управление и убедил своих товарищей начать работать сообща, чтобы добраться живыми до берега. Тем временем сообщения о крушении танкера поступили на станцию Береговой Охраны США в г. Чатаме, штат Массачусетс. Офицер Дэниэл Клафф принял решение начать рискованную операцию по спасению команды «Пендлтона». Четверо спасателей во главе с капитаном Берни Вебером на деревянной шлюпке со слабым двигателем и почти без средств навигации, должны будут дать отпор гигантским волнам и ураганному ветру, чтобы спасти терпящих бедствие моряков… Фильм основан на реальных событиях.



Страна: США
Продолжительность: 01:57:17
Перевод: Дублированный [Чистый звук]

Файл
Кодек: MPEG-4
Качество: BDRip 1080p
Видео: 1920x800, 15.6 Mbit/s, 23.976 fps
Звук:
Аудио #01: 48 kHz, AC3, 2.0, 256 Kbps | Дублированный, Чистый звук |
Аудио #02: 48 kHz, DTS, 5.1, 1510 kbps | Оригинал |
Субтитры: Русские, английские
Релиз от: Автор релиза:

Общее
Уникальный идентификатор : 223172298476777087600566567671551088253 (0xA7E56BD658A798AFB953386E27C5D67D)
Полное имя : G:VideoThe.Finest.Hours.2016.BDRip.1080p.ExKinoRay.mkv
Формат : Matroska
Версия формата : Version 4 / Version 2
Размер файла : 14,2 Гбайт
Продолжительность : 1 ч. 57 м.
Общий поток : 17,4 Мбит/сек
Название фильма : The.Finest.Hours.2016.BDRip.1080p.ExKinoRay
Дата кодирования : UTC 2016-05-13 23:36:32
Программа кодирования : mkvmerge v8.3.0 ('Over the Horizon') 64bit
Библиотека кодирования : libebml v1.3.1 + libmatroska v1.4.2
Видео
Идентификатор : 1
Формат : AVC
Формат/Информация : Advanced Video Codec
Профиль формата : [email protected]
Параметр CABAC формата : Да
Параметр ReFrames формата : 5 кадров
Идентификатор кодека : V_MPEG4/ISO/AVC
Продолжительность : 1 ч. 57 м.
Битрейт : 15,6 Мбит/сек
Ширина : 1920 пикселей
Высота : 800 пикселей
Соотношение сторон : 2,40:1
Режим частоты кадров : Постоянный
Частота кадров : 23,976 (24000/1001) кадра/сек
Цветовое пространство : YUV
Субдискретизация насыщенности : 4:2:0
Битовая глубина : 8 бит
Тип развёртки : Прогрессивная
Бит/(Пиксели*Кадры) : 0.423
Размер потока : 12,8 Гбайт (90%)
Библиотека кодирования : x264 core 148 r2665+53 6629127 t_mod_Custom [[email protected] X86_64]
Настройки программы : cabac=1 / ref=5 / deblock=1:-3:-3 / analyse=0x3:0x133 / me=umh / subme=11 / psy=1 / fade_compensate=0.00 / psy_rd=1.05:0.00 / mixed_ref=1 / me_range=32 / chroma_me=1 / trellis=2 / 8x8dct=1 / cqm=0 / deadzone=21,11 / fast_pskip=0 / chroma_qp_offset=-2 / threads=16 / lookahead_threads=2 / sliced_threads=0 / nr=0 / decimate=0 / interlaced=0 / bluray_compat=0 / constrained_intra=0 / fgo=0 / bframes=8 / b_pyramid=2 / b_adapt=2 / b_bias=0 / direct=3 / weightb=1 / open_gop=0 / weightp=2 / keyint=250 / keyint_min=23 / scenecut=40 / intra_refresh=0 / rc_lookahead=150 / rc=crf / mbtree=0 / crf=17.4000 / qcomp=0.65 / qpmin=0:0:0 / qpmax=69:69:69 / qpstep=4 / vbv_maxrate=50000 / vbv_bufsize=62500 / crf_max=0.0 / nal_hrd=none / filler=0 / ip_ratio=1.30 / pb_ratio=1.20 / aq=3:0.80 / aq-sensitivity=10.00 / aq-factor=1.00:1.00:1.00 / aq2=0 / aq3=0 / zones=27012,28581,crf=14/49036,49171,crf=14/71261,71374,crf=14/86565,86666,crf=14/161652,168756,crf=22
Язык : English
Default : Да
Forced : Нет
Цветовой диапазон : Limited
Коэффициенты матрицы : BT.709
Аудио #1
Идентификатор : 2
Формат : AC-3
Формат/Информация : Audio Coding 3
Расширение режима : CM (complete main)
Параметр Endianness формата : Big
Идентификатор кодека : A_AC3
Продолжительность : 1 ч. 57 м.
Вид битрейта : Постоянный
Битрейт : 256 Кбит/сек
Каналы : 2 канала
Расположение каналов : Front: L R
Частота : 48,0 КГц
Частота кадров : 31,250 кадров/сек (1536 spf)
Метод сжатия : С потерями
Задержка видео : 500 мс.
Размер потока : 215 Мбайт (1%)
Заголовок : DUB [Line]
Язык : Russian
Default : Да
Forced : Нет
Аудио #2
Идентификатор : 3
Формат : DTS
Формат/Информация : Digital Theater Systems
Режим : 16
Параметр Endianness формата : Big
Идентификатор кодека : A_DTS
Продолжительность : 1 ч. 57 м.
Вид битрейта : Постоянный
Битрейт : 1509 Кбит/сек
Каналы : 6 каналов
Расположение каналов : Front: L C R, Side: L R, LFE
Частота : 48,0 КГц
Частота кадров : 93,750 кадра/сек (512 spf)
Битовая глубина : 24 бит
Метод сжатия : С потерями
Размер потока : 1,24 Гбайт (9%)
Язык : English
Default : Нет
Forced : Нет
Текст #1
Идентификатор : 4
Формат : UTF-8
Идентификатор кодека : S_TEXT/UTF8
Идентификатор кодека/Информация : UTF-8 Plain Text
Продолжительность : 1 ч. 49 м.
Битрейт : 72 бит/сек
Count of elements : 968
Размер потока : 58,2 Кбайт (0%)
Язык : Russian
Default : Нет
Forced : Нет
Текст #2
Идентификатор : 5
Формат : UTF-8
Идентификатор кодека : S_TEXT/UTF8
Идентификатор кодека/Информация : UTF-8 Plain Text
Продолжительность : 1 ч. 54 м.
Битрейт : 48 бит/сек
Count of elements : 1419
Размер потока : 41,1 Кбайт (0%)
Язык : English
Default : Нет
Forced : Нет
Текст #3
Идентификатор : 6
Формат : UTF-8
Идентификатор кодека : S_TEXT/UTF8
Идентификатор кодека/Информация : UTF-8 Plain Text
Продолжительность : 1 ч. 55 м.
Битрейт : 54 бит/сек
Count of elements : 1618
Размер потока : 46,1 Кбайт (0%)
Заголовок : SDH
Язык : English
Default : Нет
Forced : Нет


_________________
Проголосуй за трекер Открытый торрент трекер - RUS-MEDIA.ORG

Проголосуй Открытый торрент трекер - RUS-MEDIA.ORG


Вернуться к началу
 Профиль Отправить личное сообщение  
 
   Похожие торренты   Автор   Торрент   Размер 
В этой теме нет новых непрочитанных сообщений. И грянул шторм / The Finest Hours (Крэйг Гиллеспи / Craig Gillespie) [2016г., боевик, триллер, драма, история, WEB-DLRip] dub

Alfredovich

8025 | 630

1.37 ГБ

В этой теме нет новых непрочитанных сообщений. 13 часов: Тайные солдаты Бенгази / 13 Hours: The Secret Soldiers of Benghazi [боевик, триллер, драма, военный, 2016] HDRip, Dub [чистый звук]

salma3

152 | 4

2.05 ГБ

В этой теме нет новых непрочитанных сообщений. Бен-Гур / Ben-Hur [Драма, приключения, история, 2016] BDRip 1080p, Dub [Чистый звук]

salma3

4257 | 830

8.01 ГБ

В этой теме нет новых непрочитанных сообщений. Бен-Гур / Ben-Hur [драма, приключения, история, 2016] BDRip 1080p, Dub [Чистый звук] salma3

salma3

324 | 144

10.34 ГБ

В этой теме нет новых непрочитанных сообщений. Джейсон Борн / Jason Bourne [боевик, триллер, 2016] BDRip 1080p, Dub [чистый звук]

salma3

463 | 72

8.91 ГБ

В этой теме нет новых непрочитанных сообщений. Инферно / Inferno [боевик, триллер, драма, 2016] WEB-DL 1080p, Dub [чистый звук]

salma3

7152 | 3406

5.04 ГБ

В этой теме нет новых непрочитанных сообщений. Союзники / Allied [боевик, триллер, драма, мелодрама, военный, 2016] WEB-DL 1080p, Dub [чистый звук]

salma3

1544 | 771

4.76 ГБ


Начать новую тему Ответить на тему  [ 1 сообщение ] 




Для Мосгорсуда, Роскомнадзора и рекламодателей:: mosgorsud-torrent[собачка]yandex.ru
cron