Торрент файл
скачать торрент магнет ссылка Добавлен: 13 май 2016, 20:55
Размер: 7.02 ГБ
Сидеров: 53
Личеров: 10
Автор

СообщениеДобавлено: 13 май 2016, 20:55 

Не в сети
Супермодератор
Аватара пользователя
Дата регистрации:
15 фев 2012, 16:44
Возраст: 28
Спасибо: 7285 / 2147
Сообщения: 70259
Год выпуска: 1999
Жанр: драма, мелодрама
Выпущено: США
Режиссер: Луис Мандоки

В ролях: Кевин Костнер , Робин Райт , Пол Ньюман , Джон Сэвэдж , Иллиана Даглас , Робби Колтрейн , Джесси Джеймс , Бетел Лесли , Том Элдридж , Вивека Дэвис , Рафаэль Сбардж , Ричард Хэмилтон

Перевод: Дублированный, Авторский одноголосый

Сюжет фильма:
Пытаясь забыться после смерти жены, Гаррет Блейк строит яхту, мечтая об одиночном плавании. А в это время редактор отдела писем влиятельной газеты «Чикаго Трибьюн» Тереза Осборн собирается в командировку по письму, которое нашла на берегу океана в бутылке. И автор этого необычного послания - не кто иной, как Гаррет Блейк...



Качество: BDRip 720p
Формат: AVC (библиотека кодирования x.264)
Контейнер (Расширение): MKV
Видео: 1280x544, 5861 Кбит/сек, 24 кадр/сек, 0,351 Бит/[Пиксели*Кадры]
Аудио №1: русский / AC3 / 5.1 / 48 kHz / 384 kbps / |Дублированный|
Аудио №2: русский / AC3 / 5.1 / 48 kHz / 640 kbps / |Авторский одноголосый, Живов|
Аудио №3: английский / AC3 / 5.1 / 48 kHz / 640 kbps /
Субтитры: русские, английские
Навигация по главам(Чаптеры): есть
Продолжительность: 02:10:51
Автор рипа: Сообщество:

Format : Matroska
Format version : Version 2
File size : 7.02 GiB
Duration : 2h 10mn
Overall bit rate : 7 678 Kbps
Movie name : Message in a Bottle.(1999).BDRip.720p.[denis100]
Encoded date : UTC 2016-05-13 06:39:17
Writing application : mkvmerge v5.8.0 ('No Sleep / Pillow') built on Sep 2 2012 15:37:04
Writing library : libebml v1.2.3 + libmatroska v1.3.0
Video
ID : 1
Format : AVC
Format/Info : Advanced Video Codec
Format profile : [email protected]
Format settings, CABAC : Yes
Format settings, ReFrames : 11 frames
Codec ID : V_MPEG4/ISO/AVC
Duration : 2h 10mn
Bit rate : 5 861 Kbps
Width : 1 280 pixels
Height : 544 pixels
Display aspect ratio : 2.35:1
Frame rate : 24.000 fps
Color space : YUV
Chroma subsampling : 4:2:0
Bit depth : 8 bits
Scan type : Progressive
Bits/(Pixel*Frame) : 0.351
Stream size : 5.36 GiB (76%)
Title : Message in a Bottle.(1999).BDRip.720p.[denis100]
Writing library : x264 core 148 r2692 64f4e24
Encoding settings : cabac=1 / ref=11 / deblock=1:-3:-3 / analyse=0x3:0x133 / me=umh / subme=11 / psy=1 / psy_rd=1.00:0.05 / mixed_ref=1 / me_range=32 / chroma_me=1 / trellis=2 / 8x8dct=1 / cqm=0 / deadzone=21,11 / fast_pskip=0 / chroma_qp_offset=-3 / threads=6 / lookahead_threads=1 / sliced_threads=0 / nr=0 / decimate=1 / interlaced=0 / bluray_compat=0 / constrained_intra=0 / bframes=10 / b_pyramid=2 / b_adapt=2 / b_bias=0 / direct=3 / weightb=1 / open_gop=0 / weightp=2 / keyint=250 / keyint_min=24 / scenecut=40 / intra_refresh=0 / rc=crf / mbtree=0 / crf=16.9 / qcomp=0.60 / qpmin=0 / qpmax=69 / qpstep=4 / ip_ratio=1.40 / pb_ratio=1.30 / aq=1:0.90
Language : English
Default : Yes
Forced : No
Audio #1
ID : 2
Format : AC-3
Format/Info : Audio Coding 3
Mode extension : CM (complete main)
Codec ID : A_AC3
Duration : 2h 10mn
Bit rate mode : Constant
Bit rate : 384 Kbps
Channel(s) : 6 channels
Channel positions : Front: L C R, Side: L R, LFE
Sampling rate : 48.0 KHz
Bit depth : 16 bits
Compression mode : Lossy
Stream size : 359 MiB (5%)
Title : Дубляж
Language : Russian
Default : Yes
Forced : No
Audio #2
ID : 3
Format : AC-3
Format/Info : Audio Coding 3
Mode extension : CM (complete main)
Codec ID : A_AC3
Duration : 2h 10mn
Bit rate mode : Constant
Bit rate : 640 Kbps
Channel(s) : 6 channels
Channel positions : Front: L C R, Side: L R, LFE
Sampling rate : 48.0 KHz
Bit depth : 16 bits
Compression mode : Lossy
Stream size : 599 MiB (8%)
Title : AVO, Живов
Language : Russian
Default : No
Forced : No
Audio #3
ID : 4
Format : AC-3
Format/Info : Audio Coding 3
Mode extension : CM (complete main)
Codec ID : A_AC3
Duration : 2h 10mn
Bit rate mode : Constant
Bit rate : 640 Kbps
Channel(s) : 6 channels
Channel positions : Front: L C R, Side: L R, LFE
Sampling rate : 48.0 KHz
Bit depth : 16 bits
Compression mode : Lossy
Stream size : 599 MiB (8%)
Language : English
Default : No
Forced : No
Text #1
ID : 5
Format : UTF-8
Codec ID : S_TEXT/UTF8
Codec ID/Info : UTF-8 Plain Text
Language : Russian
Default : No
Forced : No
Text #2
ID : 6
Format : UTF-8
Codec ID : S_TEXT/UTF8
Codec ID/Info : UTF-8 Plain Text
Language : English
Default : No
Forced : No
Menu
00:00:00.000 : en:00:00:00.000
00:04:01.875 : en:00:04:01.875
00:07:21.750 : en:00:07:21.750
00:13:27.541 : en:00:13:27.541
00:20:42.458 : en:00:20:42.458
00:31:42.083 : en:00:31:42.083
00:42:18.166 : en:00:42:18.166
00:48:01.000 : en:00:48:01.000
00:51:58.416 : en:00:51:58.416
01:05:31.125 : en:01:05:31.125
01:12:07.666 : en:01:12:07.666
01:23:33.625 : en:01:23:33.625
01:30:55.708 : en:01:30:55.708
01:39:04.625 : en:01:39:04.625
01:47:02.791 : en:01:47:02.791
01:51:23.208 : en:01:51:23.208
01:58:16.750 : en:01:58:16.750
02:06:06.333 : en:02:06:06.333
x264 [info]: frame I:1240 Avg QP:16.18 size:114616
x264 [info]: frame P:35993 Avg QP:17.40 size: 54744
x264 [info]: frame B:151206 Avg QP:19.55 size: 25049


_________________
Проголосуй за трекер Открытый торрент трекер - RUS-MEDIA.ORG

Проголосуй Открытый торрент трекер - RUS-MEDIA.ORG


Вернуться к началу
 Профиль Отправить личное сообщение  
 
   Похожие торренты   Автор   Торрент   Размер 
В этой теме нет новых непрочитанных сообщений. Послание / The Message [драма, военный, биография, история, 1976] HDRip, Avo

salma3

50 | 18

2.18 ГБ

В этой теме нет новых непрочитанных сообщений. Послание от Кинга / Message from the King [триллер, 2016] WEBRip, Mvo

salma3

0 | 0

1.45 ГБ

В этой теме нет новых непрочитанных сообщений. Послание от Кинга / Message from the King [триллер, 2016] WEBRip, Mvo

salma3

99 | 18

1.45 ГБ

В этой теме нет новых непрочитанных сообщений. Мистериум. Тьма в бутылке / Flaskepost fra P [триллер, драма, 2016] BDRip 1080p, Mvo

salma3

697 | 97

7.96 ГБ

В этой теме нет новых непрочитанных сообщений. Кровавое лето Сэма / Summer of Sam [Триллер, драма, мелодрама, 1999] BDRip 720p, Dvo+Avo+Sub

salma3

23 | 23

13.67 ГБ

В этой теме нет новых непрочитанных сообщений. Огнем и мечом / Ogniem i mieczem [драма, мелодрама, приключения, 1999] BDRip 720p, Mvo

salma3

80 | 41

8.61 ГБ

В этой теме нет новых непрочитанных сообщений. Это всё она / She's All That [мелодрама, комедия, 1999] BDRip 720p, Mvo

salma3

8 | 2

5.38 ГБ


Начать новую тему Ответить на тему  [ 1 сообщение ] 




Для Мосгорсуда, Роскомнадзора и рекламодателей:: mosgorsud-torrent[собачка]yandex.ru
cron