Торрент файл
скачать торрент магнет ссылка Добавлен: 30 июл 2015, 21:14
Размер: 11.1 ГБ
Сидеров: 161
Личеров: 23
Автор

СообщениеДобавлено: 30 июл 2015, 11:41 

Не в сети
Зам. Админа
Аватара пользователя
Дата регистрации:
02 дек 2010, 12:39
Спасибо: 12656 / 214
Сообщения: 28010
Год: 2015
Производство: Великобритания, США / BBC Films, DNA Films, Fox Searchlight Pictures
Жанр: драма, мелодрама

Режиссер: Томас Винтерберг
Продюсер: Эндрю МакДональд, Аллон Рич, Анита Оверлэнд
Актеры: Кэри Маллиган, Маттиас Шонартс, Майкл Шин, Джуно Темпл, Том Стёрридж, Тилли Восберг, Марк Уингетт, Дориан Лок, Сэм Филлипс, Брэдли Холл

Описание:
Американская драма «Вдали от обезумевшей толпы» снята по мотивам романа классика английской литературы Томаса Харди. В основе сюжета лежит история молодой, красивой девушки – Батшебы Эвердин. В её семье основным занятием нескольких поколений было фермерство. После смерти родного дядюшки, Батшеба унаследовала довольно большую и прибыльную ферму. Для того чтобы нить семейного занятия не оборвалась девушка решила ответственно заняться фермерским делом. Она отбирает сотрудников и следит за ходом освоения фермы. В этот момент начинается борьба за сердце девушки. Среди кандидатов был Габриель Оук – близкий по духу человек для Батшебы, однако, девушка отказывает ему. Следующим в борьбу за сердце юной леди вступает богатый, добрый и смелый сосед. Парень очень умён и смог бы помочь девушке в освоении фермы, но Батшеба чувствует к нему только дружеские чувства. Действительно, значимой стала встреча девушки и сержанта Троя. Между ними сразу возникает невидимая связь, но есть ли будущее у этих отношений? У Френка очень сложный жизненный путь, поэтому рядом должна быть терпеливая и умная женщина. Сможет ли Батшеба понять это?..



Продолжительность: 01:58:54
Качество: BDRip (1080p)
Перевод: профессиональный (полное дублирование) (iTunes)
Видео: MPEG-4 AVC/H.264, 1920x800 (2,40:1), 9 019 kbps, 23.976 fps, 0.245 b/px
Аудио # 1: АС3, 6 ch, 384 kbps, 48 000 Hz - DUB - iTunes
Аудио # 2: DTS, 6 ch, 1509 kbps, 48 000 Hz - Original - English
Cубтитры: Rus, Eng
Format : Matroska
Format version : Version 4 / Version 2
File size : 11.1 GiB
Duration : 1h 58mn
Overall bit rate : 13.4 Mbps
Movie name : Вдали от обезумевшей толпы. (Tonik)
Encoded date : UTC 2015-07-30 15:51:08
Writing application : mkvmerge v7.1.0 ('Good Love') 64bit built on Jul 27 2014 13:06:55
Writing library : libebml v1.3.0 + libmatroska v1.4.1
_STATISTICS_WRITING_APP : mkvmerge v7.1.0 ('Good Love') 64bit built on Jul 27 2014 13:06:55
_STATISTICS_WRITING_DATE_UTC : 2015-07-30 15:51:08
_STATISTICS_TAGS : BPS DURATION NUMBER_OF_FRAMES NUMBER_OF_BYTES
DURATION : 01:58:40.155000000
NUMBER_OF_FRAMES : 170713
NUMBER_OF_BYTES : 10226949787

Video
ID : 1
Format : AVC
Format/Info : Advanced Video Codec
Format profile : [email protected]
Format settings, CABAC : Yes
Format settings, ReFrames : 5 frames
Codec ID : V_MPEG4/ISO/AVC
Duration : 1h 58mn
Bit rate : 11.5 Mbps
Width : 1 920 pixels
Height : 800 pixels
Display aspect ratio : 2.40:1
Frame rate mode : Constant
Frame rate : 23.976 fps
Color space : YUV
Chroma subsampling : 4:2:0
Bit depth : 8 bits
Scan type : Progressive
Bits/(Pixel*Frame) : 0.312
Stream size : 9.31 GiB (84%)
Writing library : x264 core 142 r2409+42 04be48a tMod [[email protected] X86_64]
Encoding settings : cabac=1 / ref=5 / deblock=1:-3:-3 / analyse=0x3:0x133 / me=umh / subme=11 / psy=1 / fade_compensate=0.00 / psy_rd=1.00:0.15 / mixed_ref=1 / me_range=24 / chroma_me=1 / trellis=2 / 8x8dct=1 / cqm=0 / deadzone=21,11 / fast_pskip=1 / chroma_qp_offset=-3 / threads=12 / lookahead_threads=2 / sliced_threads=0 / nr=0 / decimate=1 / interlaced=0 / bluray_compat=0 / constrained_intra=0 / fgo=0 / bframes=8 / b_pyramid=2 / b_adapt=2 / b_bias=0 / direct=3 / weightb=1 / open_gop=0 / weightp=2 / keyint=240 / keyint_min=23 / scenecut=40 / intra_refresh=0 / rc_lookahead=60 / rc=2pass / mbtree=1 / bitrate=11500 / ratetol=1.0 / qcomp=0.60 / qpmin=10:10:10 / qpmax=51:51:51 / qpstep=4 / cplxblur=20.0 / qblur=0.5 / vbv_maxrate=40000 / vbv_bufsize=30000 / nal_hrd=none / filler=0 / ip_ratio=1.40 / aq=1:1.00 / aq-sensitivity=10.00 / aq-factor=1.00:1.00:1.00 / aq2=0 / aq3=0
Language : English
Default : Yes
Forced : No

Audio #1
ID : 2
Format : AC-3
Format/Info : Audio Coding 3
Mode extension : CM (complete main)
Format settings, Endianness : Big
Codec ID : A_AC3
Duration : 1h 58mn
Bit rate mode : Constant
Bit rate : 384 Kbps
Channel(s) : 6 channels
Channel positions : Front: L C R, Side: L R, LFE
Sampling rate : 48.0 KHz
Bit depth : 16 bits
Compression mode : Lossy
Stream size : 326 MiB (3%)
Title : iTunes
Language : Russian
Default : Yes
Forced : No

Audio #2
ID : 3
Format : DTS
Format/Info : Digital Theater Systems
Mode : 16
Format settings, Endianness : Big
Codec ID : A_DTS
Duration : 1h 58mn
Bit rate mode : Constant
Bit rate : 1 509 Kbps
Channel(s) : 6 channels
Channel positions : Front: L C R, Side: L R, LFE
Sampling rate : 48.0 KHz
Bit depth : 24 bits
Compression mode : Lossy
Stream size : 1.25 GiB (11%)
Language : English
Default : No
Forced : No

Text #1
ID : 4
Format : UTF-8
Codec ID : S_TEXT/UTF8
Codec ID/Info : UTF-8 Plain Text
Title : Forced
Language : Russian
Default : Yes
Forced : No

Text #2
ID : 5
Format : UTF-8
Codec ID : S_TEXT/UTF8
Codec ID/Info : UTF-8 Plain Text
Language : Russian
Default : No
Forced : No

Text #3
ID : 6
Format : UTF-8
Codec ID : S_TEXT/UTF8
Codec ID/Info : UTF-8 Plain Text
Language : English
Default : No
Forced : No

Menu
00:00:00.000 : en:Chapter 01
00:05:56.606 : en:Chapter 03
00:09:49.839 : en:Chapter 05
00:13:00.070 : en:Chapter 07
00:15:54.578 : en:Chapter 09
00:19:38.135 : en:Chapter 11
00:23:18.063 : en:Chapter 13
00:27:33.651 : en:Chapter 15
00:30:28.868 : en:Chapter 17
00:33:16.160 : en:Chapter 19
00:35:45.768 : en:Chapter 21
00:39:18.105 : en:Chapter 23
00:42:28.045 : en:Chapter 25
00:47:18.961 : en:Chapter 27
00:53:26.578 : en:Chapter 29
00:56:12.660 : en:Chapter 31
01:02:16.649 : en:Chapter 33
01:05:02.773 : en:Chapter 35
01:08:28.312 : en:Chapter 37
01:10:33.646 : en:Chapter 39
01:13:16.809 : en:Chapter 41
01:16:17.739 : en:Chapter 43
01:19:39.149 : en:Chapter 45
01:22:38.578 : en:Chapter 47
01:25:45.807 : en:Chapter 49
01:28:11.953 : en:Chapter 51
01:33:43.242 : en:Chapter 53
01:38:35.117 : en:Chapter 55
01:41:54.942 : en:Chapter 57
01:45:05.298 : en:Chapter 59
01:48:55.403 : en:Chapter 61
01:55:26.544 : en:Chapter 63
01:58:39.904 : en:Chapter 64



Вернуться к началу
 Профиль  
 
   Похожие торренты   Автор   Торрент   Размер 
В этой теме нет новых непрочитанных сообщений. Коммуна / Kollektivet (Томас Винтерберг / Thomas Vinterberg) [2016г., Дания, драма, WEBRip] dub

Alfredovich

867 | 33

1.37 ГБ

В этой теме нет новых непрочитанных сообщений. Пальмы в снегу / Palmeras en la nieve [Драма, Мелодрама, 2015] BDRip 1080p, Dvo [iTunes]

salma3

153 | 80

14.72 ГБ

В этой теме нет новых непрочитанных сообщений. Джем и голограммы / Jem and the Holograms [Фэнтези, драма, мелодрама, 2015] BDRip 1080p, Dub [iTunes]

salma3

0 | 0

8.24 ГБ

В этой теме нет новых непрочитанных сообщений. Колония Дигнидад / Colonia [триллер, драма, мелодрама, история, 2015] BDRip 1080p, Dub [iTunes]

salma3

169 | 21

8.23 ГБ

В этой теме нет новых непрочитанных сообщений. Дневник девочки-подростка / The Diary of a Teenage Girl [Драма, мелодрама, 2015] BDRip 1080p, Mvo [iTunes]

Dracon

39 | 4

7.92 ГБ

В этой теме нет новых непрочитанных сообщений. Лондонские каникулы / A Royal Night Out (Джулиан Джаррольд) [триллер, драма, мелодрама, 2015] BDRip 1080p, Dub [iTunes]

Dracon

139 | 24

7.75 ГБ

В этой теме нет новых непрочитанных сообщений. Бумажные города / Paper Towns (Джейк Шрейер) [драма, мелодрама, детектив, 2015] BDRip 1080p, Dub [iTunes]

Dracon

316 | 29

13.09 ГБ


СообщениеДобавлено: 30 июл 2015, 21:14 

Не в сети
Зам. Админа
Аватара пользователя
Дата регистрации:
02 дек 2010, 12:39
Спасибо: 12656 / 214
Сообщения: 28010
Dracon писал(а):
Re: Вдали от обезумевшей толпы / Far from the Madding Crowd (Томас Винтерберг) [драма, мелодрама, 2015] BDRip 1080p, Dub+Sub [iTunes]


Вернуться к началу
 Профиль  
 
Начать новую тему Ответить на тему  [ Сообщений: 2 ] 




Для Мосгорсуда, Роскомнадзора и рекламодателей:: mosgorsud-torrent[собачка]yandex.ru
cron