Торрент файл
скачать торрент магнет ссылка Добавлен: 14 июл 2015, 20:46
Размер: 10.49 ГБ
Сидеров: 11
Личеров: 6
Автор

СообщениеДобавлено: 14 июл 2015, 20:46 

Не в сети
Супермодератор
Аватара пользователя
Дата регистрации:
15 фев 2012, 16:44
Возраст: 28
Спасибо: 7290 / 2147
Сообщения: 70553
Год выхода: 1989
Жанр: ужасы, триллер
Режиссер: Тибор Такач
В ролях: Дженни Райт, Клэйтон Ронер, Рэндолл Уильям Кук, Стефани Ходж, Мишель Джордан, Вэнс Валенсия, Мэри Болдуин, Раф Назарио, Боб Фрэнк, Брюс Вагнер

О фильме:
Молодая женщина Вирджиния захвачена чтением романа ужасов. В мыслях она отождествляет себя с героиней книги, которую преследует сгорающий от страсти маньяк. Литературный монстр неожиданно прорывается в реальный мир, совершая убийства, ранее описанные на страницах романа. И главная его цель — Вирджиния.



Страна: США
Студия: Sarliu/Diamant, TransWorld Entertainment (TWE)
Продолжительность: 01:29:14
Перевод: Профессиональный (двухголосый, закадровый) НТВ+ + Профессиональный (многоголосый, закадровый) + Авторский (Андрей Гаврилов) + Авторский (Вартан Дохалов) + Любительский (одноголосый, закадровый)

Релиз:

Файл
Формат: Matroska
Видео: 1920x1040 at 23.976 fps, [email protected], ~14.4 Mbps avg
Аудио#1: Russian: 48 kHz, AC3, 2/0 (L,R) ch, ~192.00 kbps avg |Двухголосый закадровый, НТВ+|
Аудио#2: Russian: 48 kHz, AC3, 2/0 (L,R) ch, ~192.00 kbps avg |Многоголосый закадровый|
Аудио#3: Russian: 48 kHz, AC3, 2/0 (L,R) ch, ~192.00 kbps avg |Авторский, А.Гаврилов|
Аудио#4: Russian: 48 kHz, AC3, 2/0 (L,R) ch, ~192.00 kbps avg |Авторский, В.Дохалов|
Аудио#5: Russian: 48 kHz, AC3, 2/0 (L,R) ch, ~192.00 kbps avg |Любительский|
Аудио#6: English: 48 kHz, DTS, 3/2 (L,C,R,l,r) + LFE ch, ~1509.00 kbps avg
Субтитры: English

General
Unique ID : 196424277561150743451966348108542147123 (0x93C5F09677E699D4A261784120927A33)
Complete name : Безумная_I, Madman.1989.BDRip.1080p.batonchik.mkv
Format : Matroska
Format version : Version 4 / Version 2
File size : 10.5 GiB
Duration : 1h 30mn
Overall bit rate : 16.7 Mbps
Movie name : Безумная_I, Madman.1989.BDRip.1080p.batonchik
Encoded date : UTC 2015-07-14 04:41:51
Writing application : mkvmerge v7.7.0 ('Six Voices') 64bit built on Feb 28 2015 23:39:33
Writing library : libebml v1.3.1 + libmatroska v1.4.2

Video
ID : 1
Format : AVC
Format/Info : Advanced Video Codec
Format profile : [email protected]
Format settings, CABAC : Yes
Format settings, ReFrames : 4 frames
Codec ID : V_MPEG4/ISO/AVC
Duration : 1h 30mn
Bit rate : 14.4 Mbps
Width : 1 920 pixels
Height : 1 040 pixels
Display aspect ratio : 1.85:1
Frame rate mode : Constant
Frame rate : 23.976 fps
Color space : YUV
Chroma subsampling : 4:2:0
Bit depth : 8 bits
Scan type : Progressive
Bits/(Pixel*Frame) : 0.300
Stream size : 8.73 GiB (83%)
Title : Безумная_I, Madman.1989.BDRip.1080p.batonchik
Writing library : x264 core 146 r2538 121396c
Encoding settings : cabac=1 / ref=4 / deblock=1:-3:-3 / analyse=0x3:0x133 / me=umh / subme=10 / psy=1 / psy_rd=1.00:0.15 / mixed_ref=1 / me_range=32 / chroma_me=1 / trellis=2 / 8x8dct=1 / cqm=0 / deadzone=21,11 / fast_pskip=0 / chroma_qp_offset=-3 / threads=12 / lookahead_threads=2 / sliced_threads=0 / nr=0 / decimate=1 / interlaced=0 / bluray_compat=0 / constrained_intra=0 / bframes=8 / b_pyramid=2 / b_adapt=2 / b_bias=0 / direct=3 / weightb=1 / open_gop=0 / weightp=2 / keyint=250 / keyint_min=23 / scenecut=40 / intra_refresh=0 / rc_lookahead=40 / rc=2pass / mbtree=1 / bitrate=14359 / ratetol=1.0 / qcomp=0.60 / qpmin=0 / qpmax=69 / qpstep=4 / cplxblur=20.0 / qblur=0.5 / vbv_maxrate=50000 / vbv_bufsize=62500 / nal_hrd=none / filler=0 / ip_ratio=1.40 / aq=1:1.00
Language : English
Default : Yes
Forced : No

Audio #1
ID : 2
Format : AC-3
Format/Info : Audio Coding 3
Mode extension : CM (complete main)
Format settings, Endianness : Big
Codec ID : A_AC3
Duration : 1h 30mn
Bit rate mode : Constant
Bit rate : 192 Kbps
Channel(s) : 2 channels
Channel positions : Front: L R
Sampling rate : 48.0 KHz
Compression mode : Lossy
Stream size : 124 MiB (1%)
Title : DVO НТВ+
Language : Russian
Default : Yes
Forced : No

Audio #2
ID : 3
Format : AC-3
Format/Info : Audio Coding 3
Mode extension : CM (complete main)
Format settings, Endianness : Big
Codec ID : A_AC3
Duration : 1h 30mn
Bit rate mode : Constant
Bit rate : 192 Kbps
Channel(s) : 2 channels
Channel positions : Front: L R
Sampling rate : 48.0 KHz
Compression mode : Lossy
Stream size : 124 MiB (1%)
Title : MVO
Language : Russian
Default : No
Forced : No

Audio #3
ID : 4
Format : AC-3
Format/Info : Audio Coding 3
Mode extension : CM (complete main)
Format settings, Endianness : Big
Codec ID : A_AC3
Duration : 1h 30mn
Bit rate mode : Constant
Bit rate : 192 Kbps
Channel(s) : 2 channels
Channel positions : Front: L R
Sampling rate : 48.0 KHz
Compression mode : Lossy
Stream size : 124 MiB (1%)
Title : AVO - Гаврилов
Language : Russian
Default : No
Forced : No

Audio #4
ID : 5
Format : AC-3
Format/Info : Audio Coding 3
Mode extension : CM (complete main)
Format settings, Endianness : Big
Codec ID : A_AC3
Duration : 1h 30mn
Bit rate mode : Constant
Bit rate : 192 Kbps
Channel(s) : 2 channels
Channel positions : Front: L R
Sampling rate : 48.0 KHz
Compression mode : Lossy
Stream size : 124 MiB (1%)
Title : AVO - Дохалов
Language : Russian
Default : No
Forced : No

Audio #5
ID : 6
Format : AC-3
Format/Info : Audio Coding 3
Mode extension : CM (complete main)
Format settings, Endianness : Big
Codec ID : A_AC3
Duration : 1h 30mn
Bit rate mode : Constant
Bit rate : 192 Kbps
Channel(s) : 2 channels
Channel positions : Front: L R
Sampling rate : 48.0 KHz
Compression mode : Lossy
Stream size : 124 MiB (1%)
Title : VO - неизвестный
Language : Russian
Default : No
Forced : No

Audio #6
ID : 7
Format : DTS
Format/Info : Digital Theater Systems
Mode : 16
Format settings, Endianness : Big
Codec ID : A_DTS
Duration : 1h 30mn
Bit rate mode : Constant
Bit rate : 1 509 Kbps
Channel(s) : 6 channels
Channel positions : Front: L C R, Side: L R, LFE
Sampling rate : 48.0 KHz
Bit depth : 24 bits
Compression mode : Lossy
Stream size : 974 MiB (9%)
Language : English
Default : No
Forced : No

Text
ID : 8
Format : UTF-8
Codec ID : S_TEXT/UTF8
Codec ID/Info : UTF-8 Plain Text
Language : English
Default : Yes
Forced : No

Menu
00:00:00.000 : en:Chapter 01
00:07:12.056 : en:Chapter 02
00:15:01.525 : en:Chapter 03
00:22:42.361 : en:Chapter 04
00:29:31.770 : en:Chapter 05
00:36:40.198 : en:Chapter 06
00:44:09.271 : en:Chapter 07
00:53:02.804 : en:Chapter 08
00:59:20.181 : en:Chapter 09
01:06:43.624 : en:Chapter 10
01:13:33.409 : en:Chapter 11
01:20:01.797 : en:Chapter 12
01:29:13.264 : en:Chapter 13


_________________
Проголосуй за трекер Открытый торрент трекер - RUS-MEDIA.ORG

Проголосуй Открытый торрент трекер - RUS-MEDIA.ORG


Вернуться к началу
 Профиль Отправить личное сообщение  
 
   Похожие торренты   Автор   Торрент   Размер 
В этой теме нет новых непрочитанных сообщений. Безумная / I, Madman [ужасы, триллер, 1989] BDRip 720p, Mvo

salma3

4 | 4

4.83 ГБ

В этой теме нет новых непрочитанных сообщений. Безумная / Я, сумасшедший / I, Madman [ужасы, фэнтези, триллер, 1989] BDRemux 1080p, Dub

salma3

7 | 4

25.23 ГБ

В этой теме нет новых непрочитанных сообщений. Безумная / Я, сумасшедший / I, Madman [Ужасы, триллер, 1989] HDRip, Mvo

salma3

0 | 0

744.94 МБ

В этой теме нет новых непрочитанных сообщений. После полуночи / After Midnight [ужасы, триллер, 1989] BDRip 1080p, Avo

salma3

12 | 10

8.41 ГБ

В этой теме нет новых непрочитанных сообщений. Безумец / Madman [ужасы, триллер, 1981] HDRip, Avo

salma3

22 | 8

1.46 ГБ

В этой теме нет новых непрочитанных сообщений. Электрошок / Shocker [комедия, триллер, ужасы, мистика, 1989] BDRip 1080p, 4Avo+Mvo

salma3

39 | 10

12.73 ГБ

В этой теме нет новых непрочитанных сообщений. Невеста реаниматора / Bride of Re-Animator [ужасы, фантастика, триллер, 1989] BDRip-HEVC 1080p, Mvo

salma3

6 | 2

9.33 ГБ


Начать новую тему Ответить на тему  [ 1 сообщение ] 




Для Мосгорсуда, Роскомнадзора и рекламодателей:: mosgorsud-torrent[собачка]yandex.ru
cron