Оценка торрента
5 0%  0%  [ 0 ]
4 0%  0%  [ 0 ]
3 0%  0%  [ 0 ]
2 0%  0%  [ 0 ]
1 0%  0%  [ 0 ]
5 0%  0%  [ 0 ]
4 0%  0%  [ 0 ]
3 0%  0%  [ 0 ]
2 0%  0%  [ 0 ]
1 0%  0%  [ 0 ]
Всего голосов : 0
Торрент файл
скачать торрент магнет ссылка Добавлен: 04 сен 2011, 11:23
Размер: 1.37 ГБ
Сидеров: 12
Личеров: 3
Автор

СообщениеДобавлено: 04 сен 2011, 11:23 

Не в сети
Зам. Админа
Аватара пользователя
Дата регистрации:
02 дек 2010, 12:39
Спасибо: 12654 / 214
Сообщения: 28010
Страна: США, Universal Pictures
Жанр: фантастика, боевик, триллер, вестерн
Год выпуска: 2011
Продолжительность: 01:53:53
Перевод: Профессиональный (дублированный)
Cубтитры: нет

Режиссер: Джон Фавро
В ролях: Дэниэл Крэйг, Харрисон Форд, Эбигейл Спенсер, Бак Тейлор, Мэттью Тейлор, Купер Тейлор, Клэнси Браун, Пол Дано, Крис Браунинг, Адам Бич, Сэм Рокуэлл, Оливия Уайлд

Описание: 1873 год. Где-то в американской глубинке, в небольшой провинциальный городок прибывает странник. Он ничего не помнит из своего прошлого, а единственный намек на него - странные кандалы на одном из запястий. Странник понимает, что ему тут не особо рады, да и в целом местные жители приветливостью не отличаются. Приближаясь к правде происходящего в городке и вспоминая обрывки своего прошлого, герою предстоит столкнуться лицом к лицу с ранее неведомой силой, покоряющей все живое вокруг и имеющей внеземное происхождение...


Сэмпл.

Качество видео: TeleSynch
Формат видео: AVI
Видео: 720х304, 1519 kb/s
Аудио: AC3, 192 kb/s (2 ch)
General
Complete name : Kovboi.protiv.prishelcev.avi
Format : AVI
Format/Info : Audio Video Interleave
File size : 10.5 MiB
Duration : 1mn 0s
Overall bit rate : 1 463 Kbps
Movie name : Cowboys.And.Aliens.2011.L1.TS.KikTEAM.NET
Director : KikTEAM
Writing application : VirtualDubMod 1.5.10.2 (build 2540/release)
Writing library : VirtualDubMod build 2540/release
Copyright : http://kikteam.net

Video
ID : 0
Format : MPEG-4 Visual
Format profile : Advanced [email protected]
Format settings, BVOP : 2
Format settings, QPel : No
Format settings, GMC : No warppoints
Format settings, Matrix : Default (MPEG)
Muxing mode : Packed bitstream
Codec ID : XVID
Codec ID/Hint : XviD
Duration : 1mn 0s
Bit rate : 1 258 Kbps
Width : 720 pixels
Height : 304 pixels
Display aspect ratio : 2.35:1
Frame rate : 29.970 fps
Color space : YUV
Chroma subsampling : 4:2:0
Bit depth : 8 bits
Scan type : Progressive
Compression mode : Lossy
Bits/(Pixel*Frame) : 0.192
Stream size : 9.02 MiB (86%)
Writing library : XviD 64

Audio
ID : 1
Format : AC-3
Format/Info : Audio Coding 3
Mode extension : CM (complete main)
Codec ID : 2000
Duration : 1mn 0s
Bit rate mode : Constant
Bit rate : 192 Kbps
Channel(s) : 2 channels
Channel positions : Front: L R
Sampling rate : 48.0 KHz
Bit depth : 16 bits
Compression mode : Lossy
Delay relative to video : 10ms
Stream size : 1.38 MiB (13%)
Alignment : Split accross interleaves
Interleave, duration : 34 ms (1.01 video frame)
Interleave, preload duration : 500 ms




Вернуться к началу
 Профиль  
 
   Похожие торренты   Автор   Торрент   Размер 
В этой теме нет новых непрочитанных сообщений. Монстры против пришельцев / Monsters vs Aliens [мультфильм, фантастика, боевик, 2009] BDRip-AVC, Dub

salma3

52 | 20

1.74 ГБ

В этой теме нет новых непрочитанных сообщений. Космические ковбои / Space Cowboys [боевик, драма, приключения, 2000] HDDVDRip-HEVC 1080p, Dub

salma3

41 | 36

6.45 ГБ

В этой теме нет новых непрочитанных сообщений. Ковбои / Les cowboys [драма, 2015] HDRip, Mvo

salma3

365 | 59

1.37 ГБ

В этой теме нет новых непрочитанных сообщений. Ковбои / Les cowboys [драма, 2015] BDRip 720p, Mvo

salma3

136 | 18

4.24 ГБ

В этой теме нет новых непрочитанных сообщений. Секс ковбои / Sex Cowboys (Адриано Джотти / Adriano Giotti) [2017г., Италия, драма, DVDRip] avo

Alfredovich

507 | 66

705.69 МБ

В этой теме нет новых непрочитанных сообщений. Чужие / Aliens [ужасы, фантастика, боевик, триллер, 1986] BDRip-HEVC 1080p, Dub [Special Edition]

salma3

17 | 7

20.59 ГБ

В этой теме нет новых непрочитанных сообщений. Годзилла против Мехагодзиллы 3 / Gojira X Mekagojira [фантастика, боевик, триллер, 2002] BDRip 1080p, Dvo

salma3

0 | 7

8.71 ГБ


Начать новую тему Ответить на тему  [ 1 сообщение ] 




Для Мосгорсуда, Роскомнадзора и рекламодателей:: mosgorsud-torrent[собачка]yandex.ru
cron