Торрент файл
Автор

СообщениеДобавлено: 31 окт 2016, 02:14 

Не в сети
Дата регистрации:
28 сен 2016, 18:10
Спасибо: 216 / 0
Сообщения: 1996
Информация о фильме
Название: Нерв
Оригинальное название: Nerve
Год выхода: 2016
Жанр: триллер, криминал, детектив, приключения
Режиссеры: Генри Джуст, Эриель Шульман
В ролях: Эмма Робертс, Дэйв Франко, Эмили Мид, Майлс Хейзер, Кимико Гленн, Марк Джон Джеффрис, Машин Ган Келли, Эд Сквайр
О фильме: Поддавшись на уговоры одноклассниц, тихоня Ви открывает для себя мир популярной онлайн-игры «Нерв», где участники выполняют задания разной степени сложности, которые придумывают для них другие пользователи. В случае успеха игроки получают очень неплохие деньги. Ви проявляет неожиданную для самой себя смелость и отсутствие комплексов, и в очередном раунде знакомится с парнем по имени Иэн. Красивая пара нравится зрителям игры, и они решают, что следующие задания Ви и Иэн должны выполнять только вместе. Ставки растут, задания становятся всё опаснее, и Ви постепенно понимает, что выйти из игры по собственной воле не получится. Те, кто считают себя игроками, на самом деле всего лишь пешки в руках таинственного сообщества Наблюдателей. И никто из участников игры не знает, какое задание станет следующим — или последним...

Страна: США
Студия: Lionsgate, Keep Your Head, Allison Shearmur Productions
Продолжительность: 01:36:39
Перевод: Профессиональный (полное дублирование) | Line
Субтитры: Нет
ПРИСУТСТВУЕТ РЕКЛАМА!
Семпл
Файл
Кодек: XviD
Качество: HDRip
Видео: 688x288 (2.39:1), 23.976 fps, XviD build 73 ~946 kbps avg, 0.20 bit/pixel
Звук: 48 kHz, MPEG Layer 3, 2 ch, ~128.00 kbps avg
Общее
Полное имя : Nerve.2016.HDRip.ot.Portablius.avi
Формат : AVI
Формат/Информация : Audio Video Interleave
Размер файла : 746 Мбайт
Продолжительность : 1 ч. 36 м.
Общий поток : 1084 Кбит/сек
Программа кодирования : VirtualDubMod 1.5.10.3 | www.virtualdub-fr.org || (build 2550/release)
Библиотека кодирования : VirtualDubMod build 2550/release
Видео
Идентификатор : 0
Формат : MPEG-4 Visual
Профиль формата : Advanced [email protected]
Параметр BVOP формата : 1
Параметр QPel формата : Нет
Параметр GMC формата : Без точки перехода
Параметр матрицы формата : Выборочная
Идентификатор кодека : XVID
Идентификатор кодека/Подсказка : XviD
Продолжительность : 1 ч. 36 м.
Битрейт : 947 Кбит/сек
Ширина : 688 пикселей
Высота : 288 пикселей
Соотношение сторон : 2,40:1
Частота кадров : 23,976 (23976/1000) кадра/сек
Цветовое пространство : YUV
Субдискретизация насыщенности : 4:2:0
Битовая глубина : 8 бит
Тип развёртки : Прогрессивная
Метод сжатия : С потерями
Бит/(Пиксели*Кадры) : 0.199
Размер потока : 652 Мбайт (87%)
Библиотека кодирования : XviD 73
Аудио
Идентификатор : 1
Формат : MPEG Audio
Версия формата : Version 1
Профиль формата : Layer 3
Идентификатор кодека : 55
Идентификатор кодека/Подсказка : MP3
Продолжительность : 1 ч. 36 м.
Вид битрейта : Постоянный
Битрейт : 128 Кбит/сек
Каналы : 2 канала
Частота : 48,0 КГц
Метод сжатия : С потерями
Размер потока : 88,1 Мбайт (12%)
Выравнивание : Соединение по промежуткам
Продолжительность промежутка : 42 мс. (1,00 видеокадр)
Время предзагрузки промежутка : 504 мс.
Библиотека кодирования : LAME3.99r
Настройки программы : -m s -V 4 -q 2 -lowpass 17 -b 128




Вернуться к началу
 Профиль Отправить личное сообщение  
 
   Похожие торренты   Автор   Торрент   Размер 
В этой теме нет новых непрочитанных сообщений. Нерв / Nerve [триллер, криминал, детектив, 2016] HDRip, Dub [Line]

salma3

7336 | 1360

1.37 ГБ

В этой теме нет новых непрочитанных сообщений. Нерв / Nerve (триллер, криминал, приключения, 2016) HDRip от AleksSin | Line

marya111

13410 | 484

1.46 ГБ

В этой теме нет новых непрочитанных сообщений. Нерв / Nerve (триллер, криминал, приключения, 2016) HDRip от AleksSin | Line

marya111

191 | 10

744.02 МБ

В этой теме нет новых непрочитанных сообщений. Нерв / Nerve [триллер, криминал, детектив, приключения, 2016] BDRip 720p, Dub [Line]

salma3

1461 | 465

4.28 ГБ

В этой теме нет новых непрочитанных сообщений. Нерв / Nerve [триллер, криминал, детектив, приключения, 2016] BDRip 1080p, Dub [Line]

salma3

795 | 239

8.12 ГБ

В этой теме нет новых непрочитанных сообщений. Нерв / Nerve (Триллер, Криминал, Приключения, 2016) BDRip 720p | Line

marya111

363 | 52

3.53 ГБ

В этой теме нет новых непрочитанных сообщений. Нерв / Nerve [триллер, криминал, приключения, 2016] BDRip, Avo

salma3

58 | 12

1.46 ГБ


Начать новую тему Ответить на тему  [ 1 сообщение ] 




Для Мосгорсуда, Роскомнадзора и рекламодателей:: mosgorsud-torrent[собачка]yandex.ru