Торрент файл
Автор

СообщениеДобавлено: 06 окт 2016, 02:13 

Не в сети
Дата регистрации:
28 сен 2016, 18:10
Спасибо: 216 / 0
Сообщения: 1996
Информация о фильме
Название: Полтора шпиона
Оригинальное название: Central Intelligence
Год выпуска: 2016
Жанр: комедия, криминал
Режиссеры: Роусон Маршалл Тёрбер
В ролях: Дуэйн Джонсон, Кевин Харт, Эми Райан, Даниэль Николет, Джейсон Бейтман, Аарон Пол, Райан Хансен, Тим Гриффин, Тимоти Джон Смит, Сион Келепи
О фильме:
От лайка в соцсети до спасения мира — один шаг. Сегодня ты френдишь бывшего одноклассника, а завтра — он тащит тебя под пули. Кто ж знал, что заядлый любитель пончиков превратится в похожего на скалу супершпиона.

Страна: США
Студия: New Line Cinema, Bluegrass Films, Principato-Young Entertainment
Продолжительность: 01:47:31
Перевод: Профессиональный (полное дублирование) | Лицензия
Файл
Формат: AVI
Качество: BDRip
Видео: XviD build 73, 720x304 (2.35:1), 23.976 fps, 1474 Kbps (0.281 bit/pixel)
Звук: 48.0 kHz, AC3 Dolby Digital, 5/1 (L C R, Side: L R, LFE) ch, 448 kbps
Субтитры: Русские (на надписи, песни и прочее) - форсированные
General
Complete name : Poltora.Shpiona.2016.XviD.1.45.Gb.Lic.BDRip.by.GeneralFilm.avi
Format : AVI
Format/Info : Audio Video Interleave
File size : 1.45 GiB
Duration : 1h 47mn
Overall bit rate : 1 932 Kbps
Writing application : VirtualDubMod 1.5.10.3 | www.virtualdub-fr.org || (build 2550/release)
Writing library : VirtualDubMod build 2550/release
Video
ID : 0
Format : MPEG-4 Visual
Format profile : Advanced [email protected]
Format settings, BVOP : 1
Format settings, QPel : No
Format settings, GMC : No warppoints
Format settings, Matrix : Custom
Codec ID : XVID
Codec ID/Hint : XviD
Duration : 1h 47mn
Bit rate : 1 474 Kbps
Width : 720 pixels
Height : 304 pixels
Display aspect ratio : 2.35:1
Frame rate : 23.976 (23976/1000) fps
Color space : YUV
Chroma subsampling : 4:2:0
Bit depth : 8 bits
Scan type : Progressive
Compression mode : Lossy
Bits/(Pixel*Frame) : 0.281
Stream size : 1.11 GiB (76%)
Writing library : XviD 73
Audio
ID : 1
Format : AC-3
Format/Info : Audio Coding 3
Mode extension : CM (complete main)
Format settings, Endianness : Big
Codec ID : 2000
Duration : 1h 47mn
Bit rate mode : Constant
Bit rate : 448 Kbps
Channel(s) : 6 channels
Channel positions : Front: L C R, Side: L R, LFE
Sampling rate : 48.0 KHz
Frame rate : 31.250 fps (1536 spf)
Compression mode : Lossy
Stream size : 345 MiB (23%)
Alignment : Split accross interleaves
Interleave, duration : 42 ms (1.00 video frame)
Interleave, preload duratio : 500 ms




Релиз от:
Исходник: CENTRAL_INTELLIGENCE_TC_REMUX_HDCLUB



Вернуться к началу
 Профиль Отправить личное сообщение  
 
   Похожие торренты   Автор   Торрент   Размер 
В этой теме нет новых непрочитанных сообщений. Полтора шпиона / Central Intelligence [Боевик, комедия, криминал, 2016] BDRip-AVC, Dub [лицензия]

marya111

432 | 70

2.17 ГБ

В этой теме нет новых непрочитанных сообщений. Полтора шпиона / Central Intelligence [боевик, комедия, криминал, 2016] BDRip, Dub [лицензия]

salma3

849 | 80

1.46 ГБ

В этой теме нет новых непрочитанных сообщений. Полтора шпиона / Central Intelligence [Комедия, криминал, 2016] BDRip 1080p, Dub [лицензия] [Theatrical Cut]

marya111

0 | 0

13.23 ГБ

В этой теме нет новых непрочитанных сообщений. Полтора шпиона / Central Intelligence [Комедия, криминал, 2016] BDRemux 1080p, Dub [Лицензия]

salma3

9 | 13

22.81 ГБ

В этой теме нет новых непрочитанных сообщений. Полтора шпиона / Central Intelligence [Комедия, криминал, 2016] BDRip 720p, Dub [iTunes]

marya111

0 | 0

4.75 ГБ

В этой теме нет новых непрочитанных сообщений. Полтора шпиона / Central Intelligence [Комедия, криминал, 2016] 4K UHD BDRemux 2160p, Dub [Лицензия] [Театральная версия]

colian7

30 | 113

41.15 ГБ

В этой теме нет новых непрочитанных сообщений. Полтора шпиона / Central Intelligence [Комедия, криминал, 2016] WEB-DL 1080p, Dub [iTunes]

salma3

7 | 2

3.85 ГБ


СообщениеДобавлено: 06 окт 2016, 02:26 

Не в сети
Супермодератор
Аватара пользователя
Дата регистрации:
15 фев 2012, 16:44
Возраст: 28
Спасибо: 7226 / 2147
Сообщения: 68191
marya111 писал(а):
Re: Полтора шпиона / Central Intelligence (комедия, криминал, 2016) BDRip от GeneralFilm | Лицензия

Повтор

_________________
Проголосуй за трекер Открытый торрент трекер - RUS-MEDIA.ORG

Проголосуй Открытый торрент трекер - RUS-MEDIA.ORG


Вернуться к началу
 Профиль Отправить личное сообщение  
 
Начать новую тему Ответить на тему  [ Сообщений: 2 ] 




Для Мосгорсуда, Роскомнадзора и рекламодателей:: mosgorsud-torrent[собачка]yandex.ru