Торрент файл
Автор

СообщениеДобавлено: 30 сен 2016, 00:48 

Не в сети
Дата регистрации:
28 сен 2016, 18:10
Спасибо: 216 / 0
Сообщения: 1996
Информация о фильме
Название: Охотники за привидениями
Оригинальное название: Ghostbusters
Год выпуска: 2016
Жанр: фантастика, фэнтези, боевик, комедия
Режиссер: Пол Фиг
В ролях: Мелисса МакКарти, Кристен Уиг, Кейт МакКиннон, Лесли Джонс, Крис Хемсворт, Сесили Стронг, Энди Гарсиа, Нил Кэйси, Чарльз Дэнс, Майкл Кеннет Уильямс
О фильме:
Приспособившийся к жизни в Лондоне Тарзан возвращается в свой бывший дом, в джунгли, чтобы разобраться в том, что происходит в лагере горнодобывающей компании.

Страна: США
Студия: Columbia Pictures, Feigco Entertainment, Ghostcorps, LStar Capital, Pascal Pictures, The Montecito Picture Company, Village Roadshow Pictures
Продолжительность: 01:56:38
Перевод: Профессиональный (полное дублирование) | iTunes
Файл
Формат: AVI
Качество: WEB-DLRip
Видео: XviD build 73, 688x288 (2.40:1), 23.976 fps, 1392 Kbps (0.293 bit/pixel)
Звук: 48.0 kHz, AC3 Dolby Digital, 5/1 (L C R, Side: L R, LFE) ch, 384 kbps
Субтитры: Русские (на надписи и прочее) - форсированные
General
Complete name : Ohotniki.Za.Prividenijami.2016.XviD.WEB-DLRip.by.GeneralFilm.avi
Format : AVI
Format/Info : Audio Video Interleave
File size : 1.45 GiB
Duration : 1h 56mn
Overall bit rate : 1 785 Kbps
Writing application : VirtualDubMod 1.5.10.3 | www.virtualdub-fr.org || (build 2550/release)
Writing library : VirtualDubMod build 2550/release
Video
ID : 0
Format : MPEG-4 Visual
Format profile : Advanced [email protected]
Format settings, BVOP : 1
Format settings, QPel : No
Format settings, GMC : No warppoints
Format settings, Matrix : Custom
Codec ID : XVID
Codec ID/Hint : XviD
Duration : 1h 56mn
Bit rate : 1 392 Kbps
Width : 688 pixels
Height : 288 pixels
Display aspect ratio : 2.40:1
Frame rate : 23.976 (23976/1000) fps
Color space : YUV
Chroma subsampling : 4:2:0
Bit depth : 8 bits
Scan type : Progressive
Compression mode : Lossy
Bits/(Pixel*Frame) : 0.293
Stream size : 1.13 GiB (78%)
Writing library : XviD 73
Audio
ID : 1
Format : AC-3
Format/Info : Audio Coding 3
Mode extension : CM (complete main)
Format settings, Endianness : Big
Codec ID : 2000
Duration : 1h 56mn
Bit rate mode : Constant
Bit rate : 384 Kbps
Channel(s) : 6 channels
Channel positions : Front: L C R, Side: L R, LFE
Sampling rate : 48.0 KHz
Frame rate : 31.250 fps (1536 spf)
Compression mode : Lossy
Stream size : 320 MiB (22%)
Alignment : Split accross interleaves
Interleave, duration : 42 ms (1.00 video frame)
Interleave, preload duratio : 500 ms



Вернуться к началу
 Профиль Отправить личное сообщение  
 
   Похожие торренты   Автор   Торрент   Размер 
В этой теме нет новых непрочитанных сообщений. Охотники за привидениями / Ghostbusters [фантастика, фэнтези, боевик, комедия, 2016] WEB-DLRip, Dub [iTunes]

salma3

1857 | 53

1.46 ГБ

В этой теме нет новых непрочитанных сообщений. Охотники за привидениями / Ghostbusters [фантастика, фэнтези, боевик, комедия, 2016] WEB-DLRip, Dub [iTunes]

marya111

0 | 0

2.05 ГБ

В этой теме нет новых непрочитанных сообщений. Охотники за привидениями / Ghostbusters [фантастика, фэнтези, боевик, комедия, 2016] WEB-DLRip-AVC, Dub [iTunes]

salma3

446 | 94

1.92 ГБ

В этой теме нет новых непрочитанных сообщений. Охотники за привидениями / Ghostbusters [Фантастика, фэнтези, комедия, 2016] WEB-DLRip, Dub [iTunes]

marya111

0 | 0

747.79 МБ

В этой теме нет новых непрочитанных сообщений. Охотники за привидениями / Ghostbusters [фантастика, фэнтези, боевик, комедия, 2016] BDRip, Dub [iTunes]

marya111

404 | 19

1.41 ГБ

В этой теме нет новых непрочитанных сообщений. Охотники за привидениями / Ghostbusters [Фантастика, фэнтези, боевик, комедия, 2016] HDRip, dub [КПК] [iTunes]

marya111

138 | 9

524.49 МБ

В этой теме нет новых непрочитанных сообщений. Охотники за привидениями / Ghostbusters [фантастика, фэнтези, боевик, комедия, 2016] BDRip 1080p, Dub [iTunes]

salma3

1138 | 430

11.76 ГБ


Начать новую тему Ответить на тему  [ 1 сообщение ] 




Для Мосгорсуда, Роскомнадзора и рекламодателей:: mosgorsud-torrent[собачка]yandex.ru
cron