Торрент файл
скачать торрент магнет ссылка Добавлен: 11 мар 2015, 23:44
Размер: 11.13 ГБ
Сидеров: 79
Личеров: 40
Автор

СообщениеДобавлено: 11 мар 2015, 23:44 

Не в сети
Супермодератор
Аватара пользователя
Дата регистрации:
06 июн 2014, 07:51
Спасибо: 631 / 0
Сообщения: 1997
Информация о фильме
Название: Рони, дочь разбойника / Ронья, дочь разбойника
Оригинальное название: Sanzoku no Musume Ronja / 山賊の娘ローニャ
Страна: Япония
Год выхода: 2014
Жанр: приключения, сказка
Режиссер: Миядзаки Горо / Miyazaki Goro / 宮崎吾朗
Автор оригинала: Астрид Линдгрен / Astrid Lindgren

О фильме: По книге Астрид Линдгрен. Высоко на скале в середине огромного леса стояла большая крепость. В той крепости жила банда разбойников, которые грабили невинных людей, которые проезжали через лес. Предводителем банды был Маттис. Однажды ночью случилась ужасная гроза. Огромная молния ударила в скалу и разделила ее и крепость надвое. В ту же ночь в крепости родилось двое детей - у Маттиса родилась дочь, а у Борки, ставшего предводителем второй части банды, которая поделилась надвое, как и крепость, родился сын. С тех пор между двумя бандами была вражда. Казалось, ничего не могло соединить их снова, но есть две вещи, которые преодолевают все обстоятельства - любовь и дружба. Дети росли, и однажды отправились в путешествие в лес. Путешествие предстояло нелегким, в пути их ждали фантастические приключения, странные и опасные существа и новые друзья...

Продолжительность: ТВ (26 эп.), 25 мин.
Перевод: Любительский (двухголосый)
Озвучка: loster01 & Emeri
Субтитры: отсутствуют
Полухардсаб: надписи, логотип
Перевод на русский: YakuSub Studio - Перевод: Nika_Elrik, Редакция: Harushechka, Оформление: Helge

Файл
Качество: HDTVRip Anime-Koi
Формат: MP4
Видео: 1280 x 720 (16:9) at 23.976 fps, AVC (x264), [email protected], 2390 Kbps avg, 0.108 bit/pixel, 8 bit
Аудио: 48.0 kHz, AAC, 2 ch, 192 kbps avg

Общее
Полное имя : [LE-Production]_Sanzoku_no_Musume_Ronja_[rus]_[1280x720_x264]_[loster01_&_Emeri][LE-Production]_Sanzoku_no_Musume_Ronja_[05]_[rus]_[1280x720_x264]_[loster01_&_Emeri].mp4
Формат : MPEG-4
Профиль формата : Base Media
Идентификатор кодека : isom
Размер файла : 464 Мбайт
Продолжительность : 25 м.
Общий поток : 2586 Кбит/сек
Дата кодирования : UTC 2014-11-03 15:31:52
Дата пометки : UTC 2014-11-03 15:31:52
Программа кодирования : Yamb 2.1.0.0 [http://yamb.unite-video.com]
Правообладатель : LE-Production

Видео
Идентификатор : 1
Формат : AVC
Формат/Информация : Advanced Video Codec
Профиль формата : [email protected]
Параметр CABAC формата : Да
Параметр ReFrames формата : 4 кадры
Идентификатор кодека : avc1
Идентификатор кодека/Информация : Advanced Video Coding
Продолжительность : 25 м.
Вид битрейта : Переменный
Битрейт : 2390 Кбит/сек
Максимальный битрейт : 18,3 Мбит/сек
Ширина : 1280 пикс.
Высота : 720 пикс.
Соотношение сторон : 16:9
Режим частоты кадров : Постоянный
Частота кадров : 23,976 кадр/сек
Цветовое пространство : YUV
Подвыборка цветности : 4:2:0
Битовая глубина : 8 бит
Тип развёртки : Прогрессивная
Бит/(Пиксели*Кадры) : 0.108
Размер потока : 429 Мбайт (92%)
Библиотека кодирования : x264 core 130 r2273 b3065e6
Настройки программы : cabac=1 / ref=1 / deblock=1:1:1 / analyse=0x3:0x3 / me=dia / subme=1 / psy=1 / psy_rd=0.40:0.00 / mixed_ref=0 / me_range=16 / chroma_me=1 / trellis=0 / 8x8dct=1 / cqm=0 / deadzone=21,11 / fast_pskip=1 / chroma_qp_offset=0 / threads=12 / lookahead_threads=2 / sliced_threads=0 / nr=0 / decimate=1 / interlaced=0 / bluray_compat=0 / constrained_intra=0 / bframes=5 / b_pyramid=2 / b_adapt=1 / b_bias=0 / direct=1 / weightb=1 / open_gop=0 / weightp=1 / keyint=250 / keyint_min=23 / scenecut=40 / intra_refresh=0 / rc=crf / mbtree=0 / crf=19.0 / qcomp=0.60 / qpmin=0 / qpmax=69 / qpstep=4 / ip_ratio=1.40 / pb_ratio=1.30 / aq=1:0.60
Язык : Russian
Дата кодирования : UTC 2014-11-03 15:31:52
Дата пометки : UTC 2014-11-03 15:32:04

Аудио
Идентификатор : 2
Формат : AAC
Формат/Информация : Advanced Audio Codec
Профиль формата : LC
Идентификатор кодека : 40
Продолжительность : 25 м.
Вид битрейта : Переменный
Битрейт : 192 Кбит/сек
Максимальный битрейт : 196 Кбит/сек
Канал(ы) : 2 канала(ов)
Расположение каналов : Front: L R
Частота : 48,0 КГц
Метод сжатия : С потерями
Размер потока : 34,5 Мбайт (7%)
Язык : Russian
Дата кодирования : UTC 2014-11-03 15:32:03
Дата пометки : UTC 2014-11-03 15:32:04

01-02. Дитя ночной грозы (Дитя грозовой ночи)
03. Лес, звезды и гномы
04. Я слышу свист
05. Враг в замке
06. Поединок разбойничьих взглядов
07. Песня в тумане
08. Приходит осень в лес
09. Неизбежная снежная пропасть
10. Клятва братьев
11. Дело, совершенное тайком
12. Свист в подземелье
13. Вшивые разбойники
14. Чудесной весной
15. Бесконечная вражда (Часть 1)
16. Бесконечная вражда (Часть 2)
17. Вместе в пути
18. Что кроется в пещере
19. Потерянный нож
20. С дикими лошадьми
21. Ревущий водопад и дикие друды
22. Наше лето




Вернуться к началу
 Профиль Отправить личное сообщение  
 
   Похожие торренты   Автор   Торрент   Размер 
В этой теме нет новых непрочитанных сообщений. Чужая дочь [01-08 из 08] [Драма, криминал, 2016] HDTVRip

salma3

0 | 0

5.41 ГБ

В этой теме нет новых непрочитанных сообщений. Моя дочь пропала / My Daughter Is Missing [триллер, 2017] HDTVRip, Mvo

salma3

207 | 83

1.37 ГБ

В этой теме нет новых непрочитанных сообщений. Дочь / The Daughter [драма, 2015] WEB-DL 720p, Mvo

salma3

87 | 42

3 ГБ

В этой теме нет новых непрочитанных сообщений. Дочь Бога / Exposed [Драма, 2016] WEB-DL 720p, Mvo

Dracon

255 | 24

3.33 ГБ

В этой теме нет новых непрочитанных сообщений. Я Хочу Трахнуть Вашу Дочь В Жопу 17 / I Wanna Buttfuck Your Daughter 17 (2014) WEB-DL

salma3

22 | 1

1.65 ГБ

В этой теме нет новых непрочитанных сообщений. Дочь и мать её / Snatched [Боевик, комедия, 2017] BDRip 720p, Mvo [iTunes]

salma3

249 | 46

3.92 ГБ

В этой теме нет новых непрочитанных сообщений. Дочь моего босса / My Boss's Daughter [комедия, 2003] BDRip 720p, Mvo

salma3

11 | 1

4.08 ГБ


Начать новую тему Ответить на тему  [ 1 сообщение ] 




Для Мосгорсуда, Роскомнадзора и рекламодателей:: mosgorsud-torrent[собачка]yandex.ru
cron