Торрент файл
Автор

СообщениеДобавлено: 29 июл 2014, 19:56 

Не в сети
Дата регистрации:
29 июл 2014, 17:19
Спасибо: 42 / 0
Сообщения: 612
Название: Ной
Оригинальное название: Noah
Год выпуска: 2014
Жанр: Драма, приключения
Выпущено: США, Disruption Entertainment, New Regency Pictures, Protozoa Pictures
Режиссер: Даррен Аронофски
В ролях: Расселл Кроу, Дженнифер Коннелли, Рэй Уинстон, Энтони Хопкинс, Эмма Уотсон, Логан Лерман, Дуглас Бут, Ник Нолти, Марк Марголис, Кевин Дюран, Лео МакХью Кэрролл, Мартон Чокаш, Финн Уиттрок, Мэдисон Девенпорт, Гэвин Касалежно, Нолан Гросс, Скайлар Бурк, Дакота Гойо, Ариан Райнхарт, Адам Гриффит

Перевод: Дублированный

Сюжет фильма

В этом фильме, главная роль в котором досталась Расселу Кроу, зрителю дается возможность, вместе с главными героями пережить библейскую историю о мужественном и мудром человеке, по имени Ной. Мир по уши погряз в грехах и насилии, Господь решил очистить Землю, оставив только избранных. Грядет всемирный потоп, наш герой начинает строить большой ковчег, но никто ему не верит, больше того, многие считают Ноя, просто сумасшедшим. Его уже не остановить, он должен выполнить важную миссию, после которой мир возродится заново. Собрав родных и близких, множество зверей и птиц, он отправится в опасное путешествие на огромном ковчеге..



Файл
Качество: BDRip 1080p (исходник Blu-ray Remux)
Видео: 1920x1040, 10710 Кбит/сек, 23.976 кадр/сек, AVC, x264, [email protected], 0.224 Бит/[Пиксели*Кадры], 2pass
Аудио 1: AC3 5.1 48 kHz 640 kbps - Дублированный «Blu-ray CEE»
Аудио 2: AC3 5.1 48 kHz 640 kbps - English


Чаптеры: есть
Субтитры: Русские (forced, full), украинские, английские (full, SDH, SDH-colored)
Продолжительность: 02:17:53

Format : Matroska
Format version : Version 2
File size : 11.5 GiB
Duration : 2h 17mn
Overall bit rate : 12.0 Mbps
Movie name : Noah.(2014).BDRip.1080p.[denis100]
Encoded date : UTC 2014-07-29 12:46:30
Writing application : mkvmerge v5.8.0 ('No Sleep / Pillow') built on Sep 2 2012 15:37:04
Writing library : libebml v1.2.3 + libmatroska v1.3.0
Attachment : Yes

Video
ID : 1
Format : AVC
Format/Info : Advanced Video Codec
Format profile : [email protected]
Format settings, CABAC : Yes
Format settings, ReFrames : 4 frames
Codec ID : V_MPEG4/ISO/AVC
Duration : 2h 17mn
Bit rate : 10.7 Mbps
Width : 1 920 pixels
Height : 1 040 pixels
Display aspect ratio : 1.85:1
Frame rate mode : Constant
Frame rate : 23.976 fps
Color space : YUV
Chroma subsampling : 4:2:0
Bit depth : 8 bits
Scan type : Progressive
Bits/(Pixel*Frame) : 0.224
Stream size : 10.1 GiB (87%)
Title : Noah.(2014).BDRip.1080p.[denis100]
Writing library : x264 core 138 r2358 9e941d1
Encoding settings : cabac=1 / ref=4 / deblock=1:-3:-3 / analyse=0x3:0x133 / me=umh / subme=11 / psy=1 / psy_rd=1.00:0.15 / mixed_ref=1 / me_range=32 / chroma_me=1 / trellis=2 / 8x8dct=1 / cqm=0 / deadzone=21,11 / fast_pskip=0 / chroma_qp_offset=-3 / threads=6 / lookahead_threads=1 / sliced_threads=0 / nr=0 / decimate=1 / interlaced=0 / bluray_compat=0 / constrained_intra=0 / bframes=9 / b_pyramid=2 / b_adapt=2 / b_bias=0 / direct=3 / weightb=1 / open_gop=0 / weightp=2 / keyint=240 / keyint_min=23 / scenecut=40 / intra_refresh=0 / rc=2pass / mbtree=0 / bitrate=10710 / ratetol=1.0 / qcomp=0.60 / qpmin=0 / qpmax=69 / qpstep=4 / cplxblur=20.0 / qblur=0.5 / ip_ratio=1.40 / pb_ratio=1.30 / aq=1:0.90
Language : English
Default : Yes
Forced : No

Audio #1
ID : 2
Format : AC-3
Format/Info : Audio Coding 3
Mode extension : CM (complete main)
Format settings, Endianness : Big
Codec ID : A_AC3
Duration : 2h 17mn
Bit rate mode : Constant
Bit rate : 640 Kbps
Channel(s) : 6 channels
Channel positions : Front: L C R, Side: L R, LFE
Sampling rate : 48.0 KHz
Bit depth : 16 bits
Compression mode : Lossy
Stream size : 631 MiB (5%)
Title : Дублированное [Лицензия]
Language : Russian
Default : Yes
Forced : No

Audio #2
ID : 3
Format : AC-3
Format/Info : Audio Coding 3
Mode extension : CM (complete main)
Format settings, Endianness : Big
Codec ID : A_AC3
Duration : 2h 17mn
Bit rate mode : Constant
Bit rate : 640 Kbps
Channel(s) : 6 channels
Channel positions : Front: L C R, Side: L R, LFE
Sampling rate : 48.0 KHz
Bit depth : 16 bits
Compression mode : Lossy
Stream size : 631 MiB (5%)
Title : English
Language : English
Default : No
Forced : No

Text #1
ID : 4
Format : UTF-8
Codec ID : S_TEXT/UTF8
Codec ID/Info : UTF-8 Plain Text
Title : Forced
Language : Russian
Default : Yes
Forced : No

Text #2
ID : 5
Format : UTF-8
Codec ID : S_TEXT/UTF8
Codec ID/Info : UTF-8 Plain Text
Title : Full
Language : Russian
Default : No
Forced : No

Text #3
ID : 6
Format : UTF-8
Codec ID : S_TEXT/UTF8
Codec ID/Info : UTF-8 Plain Text
Title : Full (notabenoid)
Language : Russian
Default : No
Forced : No

Text #4
ID : 7
Format : UTF-8
Codec ID : S_TEXT/UTF8
Codec ID/Info : UTF-8 Plain Text
Title : Full
Language : Ukrainian
Default : No
Forced : No

Text #5
ID : 8
Format : UTF-8
Codec ID : S_TEXT/UTF8
Codec ID/Info : UTF-8 Plain Text
Title : Full
Language : English
Default : No
Forced : No

Text #6
ID : 9
Format : UTF-8
Codec ID : S_TEXT/UTF8
Codec ID/Info : UTF-8 Plain Text
Title : SDH
Language : English
Default : No
Forced : No

Text #7
ID : 10
Format : UTF-8
Codec ID : S_TEXT/UTF8
Codec ID/Info : UTF-8 Plain Text
Title : SDH (Colored)
Language : English
Default : No
Forced : No

Menu
00:00:00.000 : en:Chapter 1
00:04:48.955 : en:Chapter 2
00:08:37.266 : en:Chapter 3
00:12:23.033 : en:Chapter 4
00:18:43.080 : en:Chapter 5
00:23:25.487 : en:Chapter 6
00:32:06.424 : en:Chapter 7
00:37:27.203 : en:Chapter 8
00:42:50.734 : en:Chapter 9
00:54:35.647 : en:Chapter 10
01:01:14.962 : en:Chapter 11
01:03:28.596 : en:Chapter 12
01:09:33.794 : en:Chapter 13
01:19:18.336 : en:Chapter 14
01:21:56.536 : en:Chapter 15
01:29:12.347 : en:Chapter 16
01:34:02.053 : en:Chapter 17
01:40:27.354 : en:Chapter 18
01:49:23.098 : en:Chapter 19
01:55:57.825 : en:Chapter 20
02:00:37.230 : en:Chapter 21
02:11:32.676 : en:Chapter 22




x264 [info]: frame I:1277 Avg QP:17.45 size:339407
x264 [info]: frame P:44787 Avg QP:19.54 size: 95668
x264 [info]: frame B:152293 Avg QP:21.83 size: 41565





Вернуться к началу
 Профиль Отправить личное сообщение  
 
   Похожие торренты   Автор   Торрент   Размер 
В этой теме нет новых непрочитанных сообщений. Упс… Ной уплыл! / Ooops! Noah is Gone (Тоби Генкель, Шон МакКормак) [мультфильм, комедия, приключения, 2015] BDRip 720p, dvo

Dracon

13 | 1

3.94 ГБ

В этой теме нет новых непрочитанных сообщений. Тайна ковчега / Visus-Expedition Arche Noah [боевик, триллер, приключения, 2011] DVDRip, Mvo

salma3

433 | 72

1.36 ГБ

В этой теме нет новых непрочитанных сообщений. Упс… Ной уплыл! / Ooops! Noah is Gone (Тоби Генкель, Шон МакКормак) [мультфильм, комедия, приключения, 2015] HDRip, dvo

Dracon

32 | 2

1.37 ГБ

В этой теме нет новых непрочитанных сообщений. Город монстров / Tales of Halloween (Даррен Линн Боусман, Аксель Кэролин, Адам Гираш) [ужасы, 2015] BDRip 720p, dub [Чистый звук]

Dracon

1481 | 57

3.99 ГБ

В этой теме нет новых непрочитанных сообщений. Город монстров / Tales of Halloween (Даррен Линн Боусман, Аксель Кэролин, Адам Гираш) [ужасы, 2015] BDRip 1080p, dub [Чистый звук]

Dracon

649 | 58

8.51 ГБ

В этой теме нет новых непрочитанных сообщений. Мёд в голове / Honig im Kopf [драма, комедия, приключения, семейный, 2014] BDRip, Mvo

salma3

150 | 1

1.47 ГБ

В этой теме нет новых непрочитанных сообщений. Мёд в голове / Honig im Kopf (Тиль Швайгер) [2014, драма, комедия, приключения, BDRip-AVC] mvo

Nickolas3435

478 | 29

2.18 ГБ


СообщениеДобавлено: 29 июл 2014, 20:01 

Не в сети
Зам. Админа
Аватара пользователя
Дата регистрации:
02 дек 2010, 12:39
Спасибо: 12654 / 214
Сообщения: 28010
viewtopic.php?f=29&t=4491


Вернуться к началу
 Профиль  
 
Начать новую тему Ответить на тему  [ Сообщений: 2 ] 




Для Мосгорсуда, Роскомнадзора и рекламодателей:: mosgorsud-torrent[собачка]yandex.ru
cron