Торрент файл
Автор

СообщениеДобавлено: 29 июл 2014, 18:31 

Не в сети
Дата регистрации:
29 июл 2014, 17:19
Спасибо: 42 / 0
Сообщения: 612
Год выпуска: 2014
Производство: США
Жанр: Боевик, Триллер, Приключения

Режиссер: Патрик Хьюз
Продюсер: Ави Лернер, Дэнни Лернер, Кевин Кинг Темплтон
Актеры: Джейсон Стэйтем, Сильвестр Сталлоне, Джет Ли, Уэсли Снайпс, Дольф Лундгрен, Харрисон Форд, Арнольд Шварценеггер, Мэл Гибсон, Антонио Бандерас, Келлан Латс, Терри Крюс

Перевод: Многоголосый закадровый (Baibako)
Субтитры: Вшитые отключаемые
Язык субтитров: Русский (notabenoid), Английский (full)

Описание фильма:
Барни, Кристмас и остальные члены команды сходятся лицом к лицу с Конрадом Стоунбэнксом, многие годы назад основавшем вместе с Барни команду «Неудержимых». Впоследствии Стоунбэнкс становится безжалостным торговцем оружием, и тем самым превращается в человека, которого Барни было поручено убить… Или, по крайней мере, он сам так считал.
Теперь Стоунбэнкс, один раз уже сумевший обмануть смерть, поставил себе цель покончить с «Неудержимыми» — но у Барни на этот счёт свои планы. Барни решает, что в его борьбе «свежий» подход можно противопоставить старым методам, и пополняет ряды людьми, которые моложе, быстрее и технически более подкованные. Так у членов команды «Неудержимых» начинается новая эра. Последняя миссия превращается в столкновение между представителями классической «старой школы» и экспертами в высоких технологиях.

Рейтинг MPAA: PG-13 (детям до 13 лет просмотр не желателен)
Возраст: 12+



Дата мировой премьеры: 4 августа 2014
Дата премьеры в России: 14 августа 2014, «UPI»

Продолжительность: 02:06:16
Качество видео: DVDScr [H.264]

Видеокодек: MPEG-4 AVC/H.264
Битрейт видео: ~1648 Kbps
Размер кадра: 720x304 , 23,976 fps
Аудио #1: AC3, 48,0 KHz, 2 ch, 384 Kbps, CBR (Русский, Многоголосый закадровый)
Аудио #2: AC3, 48,0 KHz, 2 ch, 256 Kbps, CBR (Английский)
• Микки Рурку предлагали сыграть роль Тула.
• Николас Кейдж рассматривался на роль Бонапарта, прежде чем эту роль получил Келси Грэммер.
• Дуэйн Джонсон и Халк Хоган были согласны играть, но им отказали.
• Планировалось участие Жан-Клода Ван Дамма в роли брата-близнеца Жана Вилена — Клода Вилена.
• Клинту Иствуду предлагали одну из ролей, но он отказался.
• В фильме мог сыграть Стивен Сигал.
• Брюс Уиллис должен был сыграть роль Чёрча за гонорар в $ 3 миллиона (по $ 750,000 за каждый из четырех съемочных дней). Когда он потребовал $ 1 миллион в день, Сильвестр Сталлоне и продюсеры фильма отказали ему, после чего он покинул проект. Буквально через 3 дня Сталлоне заполучил на эту роль Харрисона Форда.
• Сильвестр Сталлоне предлагал роль второго плана Джеки Чану, но тот отказался, потому что хотел сыграть одну из главных ролей.
• Во время съемок сцены в грузовике с Джейсоном Стэйтемом произошла авария — из-за того, что отказали тормоза, грузовик упал в море. Актер не пострадал.
• Мэлу Гибсону предлагали не только роль главного злодея, но еще и место режиссера проекта, но от последней должности он все же отказался.
• На роль Камиллы рассматривалась Милла Йовович, но в итоге она отказалась в связи с занятостью в проектах «Обитель зла 6» (2014) и «Цимбелин» (2014).
• Остальные факты на kinopoisk.ru
Код:
Формат                                   : Matroska
Версия формата                           : Version 2
Размер файла                             : 2,00 Гбайт
Продолжительность                        : 2 ч. 6 м.
Общий поток                              : 2262 Кбит/сек
Название фильма                          : The Expendables 3 (2014)
Дата кодирования                         : UTC 2014-07-28 22:30:53
Программа кодирования                    : mkvmerge v6.9.1 ('Blue Panther') 64bit built on Apr 18 2014 18:23:38
Библиотека кодирования                   : libebml v1.3.0 + libmatroska v1.4.1

Видео
Идентификатор                            : 1
Формат                                   : AVC
Формат/Информация                        : Advanced Video Codec
Профиль формата                          : [url=mailto:[email protected]][email protected][/url]
Параметр CABAC формата                   : Да
Параметр ReFrames формата                : 4 кадра
Идентификатор кодека                     : V_MPEG4/ISO/AVC
Продолжительность                        : 2 ч. 6 м.
Битрейт                                  : 1648 Кбит/сек
Ширина                                   : 720 пикселей
Высота                                   : 304 пикселя
Соотношение сторон                       : 2,35:1
Режим частоты кадров                     : Постоянный
Частота кадров                           : 23,976 кадра/сек
Цветовое пространство                    : YUV
Субдискретизация насыщенности            : 4:2:0
Битовая глубина                          : 8 бит
Тип развёртки                            : Прогрессивная
Бит/(Пиксели*Кадры)                      : 0.314
Размер потока                            : 1,42 Гбайт (71%)
Библиотека кодирования                   : x264 core 115 r1995 c1e60b9
Настройки программы                      : cabac=1 / ref=3 / deblock=1:0:0 / analyse=0x3:0x113 / me=hex / subme=7 / psy=1 / psy_rd=1.00:0.00 / mixed_ref=1 / me_range=16 / chroma_me=1 / trellis=1 / 8x8dct=1 / cqm=0 / deadzone=21,11 / fast_pskip=1 / chroma_qp_offset=-2 / threads=3 / sliced_threads=0 / nr=0 / decimate=1 / interlaced=0 / bluray_compat=0 / constrained_intra=0 / bframes=3 / b_pyramid=2 / b_adapt=1 / b_bias=0 / direct=1 / weightb=1 / open_gop=1 / weightp=2 / keyint=250 / keyint_min=23 / scenecut=40 / intra_refresh=0 / rc_lookahead=40 / rc=abr / mbtree=1 / bitrate=1648 / ratetol=1.0 / qcomp=0.60 / qpmin=0 / qpmax=69 / qpstep=4 / ip_ratio=1.40 / aq=1:1.00
Язык                                     : English
Default                                  : Да
Forced                                   : Нет

Аудио #1
Идентификатор                            : 2
Формат                                   : AC-3
Формат/Информация                        : Audio Coding 3
Расширение режима                        : CM (complete main)
Параметр Endianness формата              : Big
Идентификатор кодека                     : A_AC3
Продолжительность                        : 2 ч. 6 м.
Вид битрейта                             : Постоянный
Битрейт                                  : 384 Кбит/сек
Каналы                                   : 2 канала
Расположение каналов                     : Front: L R
Частота                                  : 48,0 КГц
Битовая глубина                          : 16 бит
Метод сжатия                             : С потерями
Размер потока                            : 347 Мбайт (17%)
Заголовок                                : Baibako
Язык                                     : Russian
Default                                  : Да
Forced                                   : Нет

Аудио #2
Идентификатор                            : 3
Формат                                   : AC-3
Формат/Информация                        : Audio Coding 3
Расширение режима                        : CM (complete main)
Параметр Endianness формата              : Big
Идентификатор кодека                     : A_AC3
Продолжительность                        : 2 ч. 6 м.
Вид битрейта                             : Постоянный
Битрейт                                  : 224 Кбит/сек
Каналы                                   : 2 канала
Расположение каналов                     : Front: L R
Частота                                  : 48,0 КГц
Битовая глубина                          : 16 бит
Метод сжатия                             : С потерями
Размер потока                            : 202 Мбайт (10%)
Язык                                     : English
Default                                  : Нет
Forced                                   : Нет

Текст #1
Идентификатор                            : 4
Формат                                   : UTF-8
Идентификатор кодека                     : S_TEXT/UTF8
Идентификатор кодека/Информация          : UTF-8 Plain Text
Заголовок                                : notabenoid
Язык                                     : Russian
Default                                  : Нет
Forced                                   : Нет

Текст #2
Идентификатор                            : 5
Формат                                   : UTF-8
Идентификатор кодека                     : S_TEXT/UTF8
Идентификатор кодека/Информация          : UTF-8 Plain Text
Заголовок                                : full
Язык                                     : English
Default                                  : Нет
Forced                                   : Нет

Меню
00:00:00.000                             : :00:00:00.000
00:10:35.969                             : :00:10:35.969
00:20:33.190                             : :00:20:33.190
00:32:07.884                             : :00:32:07.884
00:40:50.782                             : :00:40:50.782
00:50:19.225                             : :00:50:19.225
01:01:31.855                             : :01:01:31.855
01:13:17.018                             : :01:13:17.018
01:24:40.762                             : :01:24:40.762
01:34:40.752                             : :01:34:40.752
01:45:40.842                             : :01:45:40.842
01:55:45.935                             : :01:55:45.935





Вернуться к началу
 Профиль Отправить личное сообщение  
 
   Похожие торренты   Автор   Торрент   Размер 
В этой теме нет новых непрочитанных сообщений. Неудержимые 3 / The Expendables 3 [Боевик, триллер, приключения, 2014] BDRip 720p, Dub

salma3

3 | 7

4.15 ГБ

В этой теме нет новых непрочитанных сообщений. Неудержимые 3 / The Expendables 3 [боевик, триллер, приключения, 2014] BDRip, Avo [Гаврилов] [Расширенная версия]

salma3

48 | 10

1.46 ГБ

В этой теме нет новых непрочитанных сообщений. Неудержимые 3 / The Expendables 3 [боевик, триллер, приключения, 2014] UHD BDRemux 2160p, Dub [4K] [Лицензия] [Театральная версия]

salma3

18 | 9

57.99 ГБ

В этой теме нет новых непрочитанных сообщений. Неудержимые / The Expendables [боевик, триллер, приключения, 2010] BDRip 1080p, Dub [Open Matte]

salma3

1 | 19

10.11 ГБ

В этой теме нет новых непрочитанных сообщений. Неудержимые / Riders [боевик, триллер, криминал, 2002] DVDRip-AVC, Dub

salma3

0 | 0

2.57 ГБ

В этой теме нет новых непрочитанных сообщений. Выживший / The Revenant (Алехандро Гонсалес Иньярриту) [триллер, драма, приключения, вестерн, 2015] DVDScr [Есарев]

Dracon

2379 | 80

2.05 ГБ

В этой теме нет новых непрочитанных сообщений. Атака Титанов. Фильм первый: Жестокий мир / Shingeki no kyojin: Attack on Titan (Синдзи Хигути ) [фэнтези, боевик, драма, приключения, 2015] DVDScr 720p, dvo

Dracon

38 | 0

2.11 ГБ


СообщениеДобавлено: 29 июл 2014, 20:00 

Не в сети
Зам. Админа
Аватара пользователя
Дата регистрации:
02 дек 2010, 12:39
Спасибо: 12654 / 214
Сообщения: 28010
viewtopic.php?f=29&t=4491


Вернуться к началу
 Профиль  
 
Начать новую тему Ответить на тему  [ Сообщений: 2 ] 




Для Мосгорсуда, Роскомнадзора и рекламодателей:: mosgorsud-torrent[собачка]yandex.ru