Торрент файл
Автор

СообщениеДобавлено: 31 янв 2014, 13:24 

Не в сети
2 Звезды
Аватара пользователя
Дата регистрации:
10 окт 2010, 20:23
Возраст: 62
Спасибо: 179 / 0
Сообщения: 323
Откуда: КРАСНОГОРСК
Ёлки: Трилогия[

Год выпуска: 2010-2013
Выпущено:: РОССИЯ , Базелевс Продакшн
Жанр: Комедия
Продолжительность: 3 x ~ 01:32:00
Перевод:НЕ ТРЕБУЕТСЯ
Субтитры : отсутствуют



Режиссер: Ольга Харина, Дмитрий Киселёв, Александр Котт, Александр Баранов, Тимур Бекмамбетов, Александр Войтинский, Александр Андрющенко

В ролях: Иван Ургант, Сергей Светлаков, Сергей Походаев, Алина Булынко, Артур Смольянинов, Екатерина Вилкова, Мария Порошина, Дато Бахтадзе, Никита Пресняков, Сергей Гармаш, Александр Головин, Александр Домогаров мл., Сергей Друзьяк, Павел Меленчук, Ольга Тумайкина, Виктор Вержбицкий, Олег Масленников, Кристина Асмус, Мария Симакина, Андрей Кислицин, Константин Хабенский, Галина Стаханова, Олег Филипчик, Елена Плаксина, хроника, Дмитрий Малашенко, Галина Данилова, Баймурат Аллабериев, Борис Хвошнянский, Константин Самоуков, Иван Громов, Ирина Архипова

Ёлки
События самой новогодней комедии ЁЛКИ происходят в 11 городах: Калининграде, Казани, Перми, Уфе, Бавлах, Екатеринбурге, Красноярске, Якутске, Новосибирске, Санкт-Петербурге и Москве. Герои фильма — таксист и поп-дива, бизнесмен и актер, сноубордист и лыжник, студент и пенсионерка, пожарник и директриса, вор и милиционер, гастарбайтер и Президент России. Все они оказываются в самый канун Нового года в очень непростой ситуации, выйти из которой им поможет только чудо… или Теория шести рукопожатий, согласно которой каждый человек на земле знает другого через шесть знакомых.
Ёлки 2
За этот год много чего произошло, но наступит день, который всё расставит на свои места. Продолжение новогодних историй, которые происходили в жизни героев в фильме «Ёлки».
Ёлки 3
Спустя два года они снова с нами: любимые герои «Ёлок» в самых невероятных новогодних историях. Боря и Женя, чьи годовалые дети в канун праздника доведут друзей до психушки. Маленькая девочка Настя, чьи родители разлучат ее влюбленных друг в друга собак. Лыжник и сноубордист в самой экстремальной в их жизни гонке — от военкома. И профессор из Екатеринбурга Андрей, чья любвеобильность вновь не доведет его до добра, а только до проруби в минус 30. Под бой курантов этих и новых героев «Ёлок» объединит бумеранг добра. Завершая свой круг, он заслуженно вернётся к каждому, кто его однажды запустил — кому улыбками и объятиями любимых и друзей, кому — праздничным настроением и соответствующим градусу состоянием, а кому-то… телефоном в холодце!

Качество : BDRip-AVC
Формат: MPEG-4
Видео кодек: H264
Видео: 3005Кбит/сек,1024х576(16.9),в 23.970кадр/сек,AVC([email protected])(1Ref Frames)
Аудио кодек: AAC
Аудио Russian Dolby Digital 5.1:456Кбит/сек,44.1КГц,6каналов,AAC,(Version4)(LC)

Звуковая дорожка сделана путем наложения чистого голоса озвучивателей на центральный канал оригинальной дорожки. Качество идентично звуковой дорожке.


General
Полное имя : D:\Ё Л К И\ELKI_2010_-_2013_RUS[_DD5.1_x264_Nikolai.Baranov_ВDRip-AVC\ELKI_2010_RUS[_DD5.1_x264_Nikolai.Baranov_ВDRip-AVC.mp4
Формат : MPEG-4
Профиль формата : Base Media
Идентификатор кодека : isom
Размер файла : 2.14 GiB
Продолжительность : 1h 28mn
Режим общего битрейта : Variable
Общий поток : 3 451 Kbps
Название фильма : Ёлки 2 | 2011
Дата кодирования : UTC 2013-12-30 19:54:37
Дата пометки : UTC 2013-12-30 19:54:37
Программа кодирования : Lavf51.12.1

Video
Идентификатор : 1
Формат : AVC
Формат/Информация : Advanced Video Codec
Профиль формата : [email protected]
Параметр CABAC формата : No
Параметр ReFrames формата : 1 frame
Параметр GOP формата : M=1, N=12
Идентификатор кодека : avc1
Идентификатор кодека/Информация : Advanced Video Coding
Продолжительность : 1h 28mn
Вид битрейта : Variable
Битрейт : 2 993 Kbps
Максимальный битрейт : 4 500 Kbps
Ширина : 1 024 pixels
Высота : 576 pixels
Соотношение сторон : 16:9
Режим частоты кадров : Constant
Частота кадров : 23.976 fps
Частота кадров в оригинале : 24.000 fps
Цветовое пространство : YUV
Субдискретизация насыщенности : 4:2:0
Битовая глубина : 8 bits
Тип развёртки : Progressive
Бит/(Пиксели*Кадры) : 0.212
Размер потока : 1.86 GiB (87%)
Дата кодирования : UTC 2013-12-30 19:54:37
Дата пометки : UTC 2013-12-30 19:54:37

Audio
Идентификатор : 2
Формат : AAC
Формат/Информация : Advanced Audio Codec
Профиль формата : LC
Идентификатор кодека : 40
Продолжительность : 1h 28mn
Вид битрейта : Variable
Битрейт : 454 Kbps
Каналы : 6 channels
Расположение каналов : Front: L C R, Side: L R, LFE
Частота : 44.1 KHz
Метод сжатия : Lossy
Размер потока : 289 MiB (13%)
Дата кодирования : UTC 2013-12-30 19:54:37
Дата пометки : UTC 2013-12-30 19:54:37


General
Полное имя : D:\Ё Л К И\ELKI_2010_-_2013_RUS[_DD5.1_x264_Nikolai.Baranov_ВDRip-AVC\ELK I 2_2011_RUS[_DD5.1_x264_Nikolai.Baranov_ВDRip-AVC.mp4
Формат : MPEG-4
Профиль формата : Base Media
Идентификатор кодека : isom
Размер файла : 2.42 GiB
Продолжительность : 1h 40mn
Режим общего битрейта : Variable
Общий поток : 3 460 Kbps
Название фильма : Ёлки 2 | 2011
Дата кодирования : UTC 2013-12-30 19:54:37
Дата пометки : UTC 2013-12-30 19:54:37
Программа кодирования : Lavf51.12.1

Video
Идентификатор : 1
Формат : AVC
Формат/Информация : Advanced Video Codec
Профиль формата : [email protected]
Параметр CABAC формата : No
Параметр ReFrames формата : 1 frame
Параметр GOP формата : M=1, N=12
Идентификатор кодека : avc1
Идентификатор кодека/Информация : Advanced Video Coding
Продолжительность : 1h 40mn
Вид битрейта : Variable
Битрейт : 3 001 Kbps
Максимальный битрейт : 4 500 Kbps
Ширина : 1 024 pixels
Высота : 576 pixels
Соотношение сторон : 16:9
Режим частоты кадров : Constant
Частота кадров : 23.976 fps
Частота кадров в оригинале : 24.000 fps
Цветовое пространство : YUV
Субдискретизация насыщенности : 4:2:0
Битовая глубина : 8 bits
Тип развёртки : Progressive
Бит/(Пиксели*Кадры) : 0.212
Размер потока : 2.10 GiB (87%)
Язык : Russian
Дата кодирования : UTC 2013-12-30 19:54:37
Дата пометки : UTC 2013-12-30 19:54:37

Audio
Идентификатор : 2
Формат : AAC
Формат/Информация : Advanced Audio Codec
Профиль формата : LC
Идентификатор кодека : 40
Продолжительность : 1h 40mn
Вид битрейта : Variable
Битрейт : 456 Kbps
Каналы : 6 channels
Расположение каналов : Front: L C R, Side: L R, LFE
Частота : 44.1 KHz
Метод сжатия : Lossy
Размер потока : 327 MiB (13%)
Язык : Russian
Дата кодирования : UTC 2013-12-30 19:54:37
Дата пометки : UTC 2013-12-30 19:54:37


General
Полное имя : D:\Ё Л К И\ELKI_2010_-_2013_RUS[_DD5.1_x264_Nikolai.Baranov_ВDRip-AVC\ELK I 3_2013_RUS[_DD5.1_x264_Nikolai.Baranov_ВDRip-AVC.mp4
Формат : MPEG-4
Профиль формата : Base Media
Идентификатор кодека : isom
Размер файла : 2.34 GiB
Продолжительность : 1h 36mn
Режим общего битрейта : Variable
Общий поток : 3 466 Kbps
Название фильма : Mulen.Rujh.2001.x264.BDRip.720p.Troyanec27
Дата кодирования : UTC 2014-01-30 19:13:51
Дата пометки : UTC 2014-01-30 19:13:51
Программа кодирования : Lavf51.12.1

Video
Идентификатор : 1
Формат : AVC
Формат/Информация : Advanced Video Codec
Профиль формата : [email protected]
Параметр CABAC формата : No
Параметр ReFrames формата : 1 frame
Параметр GOP формата : M=1, N=12
Идентификатор кодека : avc1
Идентификатор кодека/Информация : Advanced Video Coding
Продолжительность : 1h 36mn
Вид битрейта : Variable
Битрейт : 3 005 Kbps
Максимальный битрейт : 4 500 Kbps
Ширина : 1 024 pixels
Высота : 576 pixels
Соотношение сторон : 16:9
Режим частоты кадров : Constant
Частота кадров : 24.000 fps
Цветовое пространство : YUV
Субдискретизация насыщенности : 4:2:0
Битовая глубина : 8 bits
Тип развёртки : Progressive
Бит/(Пиксели*Кадры) : 0.212
Размер потока : 2.03 GiB (87%)
Язык : Russian
Дата кодирования : UTC 2014-01-30 19:13:51
Дата пометки : UTC 2014-01-30 19:13:51

Audio
Идентификатор : 2
Формат : AAC
Формат/Информация : Advanced Audio Codec
Профиль формата : LC
Идентификатор кодека : 40
Продолжительность : 1h 36mn
Вид битрейта : Variable
Битрейт : 456 Kbps
Каналы : 6 channels
Расположение каналов : Front: L C R, Side: L R, LFE
Частота : 44.1 KHz
Метод сжатия : Lossy
Размер потока : 316 MiB (13%)
Язык : Russian
Дата кодирования : UTC 2014-01-30 19:13:51
Дата пометки : UTC 2014-01-30 19:13:51






Ёлки

Ёлки2

Ёлки3



Релиз от: Nikolai.Baranov







_________________

Легко быть оптимистом, когда судьба не валит с ног тяжелыми ударами, а лишь иногда легонько шлепает по заднице.


Вернуться к началу
 Профиль Отправить личное сообщение  
 
   Похожие торренты   Автор   Торрент   Размер 
В этой теме нет новых непрочитанных сообщений. Ёлки 1, 2, 3 [Трилогия] (Тимур Бекмамбетов, Ольга Харина, Дмитрий Киселёв) [2010-2013, комедия, семейный, BDRip-AVC]

marya111

241 | 48

4.35 ГБ

В этой теме нет новых непрочитанных сообщений. Рая знает [01-10 из 10] (Александр Баранов (II)) [Детектив, комедия, мелодрама, 2015] HDTVRip

Dracon

1824 | 1565

5.4 ГБ

В этой теме нет новых непрочитанных сообщений. Рая знает [01-10 из 10] (Александр Баранов ) [Детектив, комедия, мелодрама, 2015] HDTV 1080i

Dracon

200 | 169

26.46 ГБ

В этой теме нет новых непрочитанных сообщений. Рая знает [01-10 из 10] (Александр Баранов (II)) [Детектив, комедия, мелодрама, 2015] HDTVRip 720p

Dracon

403 | 128

15.49 ГБ

В этой теме нет новых непрочитанных сообщений. Рая знает [Серия 1-10 из 10] (Александр Баранов) [Детектив, Комедия, Мелодрама, 2015] SATRip

Dracon

32 | 4

5.88 ГБ

В этой теме нет новых непрочитанных сообщений. ЦРУ: Операция «Алекса 2»: Цель Алекса / CIA II: Target Alexa [Боевик, драма, 1993] HDRip, Mvo+Avo

salma3

33 | 2

1.47 ГБ

В этой теме нет новых непрочитанных сообщений. Бен-Гур / Ben-Hur [2016] ( Тимур Бекмамбетов) [2016, Драма, приключения, история , BDRip 400p] [DD5.1] [Dub Rus, Englis + Subs Rus, ENG] [Лицензия СЕЕ]

Враг Нароода

4 | 5

4.04 ГБ


СообщениеДобавлено: 31 янв 2014, 14:28 

Не в сети
Зам. Админа
Аватара пользователя
Дата регистрации:
02 дек 2010, 12:39
Спасибо: 12654 / 214
Сообщения: 28010
Название меняй как в твоих раздачах...


Вернуться к началу
 Профиль  
 
Начать новую тему Ответить на тему  [ Сообщений: 2 ] 




Для Мосгорсуда, Роскомнадзора и рекламодателей:: mosgorsud-torrent[собачка]yandex.ru