Торрент файл
скачать торрент магнет ссылка Добавлен: 26 окт 2012, 09:18
Размер: 4.37 ГБ
Сидеров: 5
Личеров: 3
Статус: (Dracon)
Автор

СообщениеДобавлено: 26 окт 2012, 09:18 

Не в сети
Зам. Админа
Аватара пользователя
Дата регистрации:
02 дек 2010, 12:39
Спасибо: 12654 / 214
Сообщения: 28010

Год выхода: 2011
Жанр:Мультфильм, драма, комедия, семейный
Режиссер: Сара Смит
В ролях: Джеймс МакЭвой, Хью Лори, Билл Найи, Джим Броудбент, Имелда Стонтон, Эшли Дженсен, Марк Вуттон, Лора Линни, Ева Лонгория, Рамона Маркес

Сюжет фильма: Рождественский мультфильм "Секретная служба Санта-Клауса" обещает подарить Вам предпраздничное настроение и порадовать новыми идеями. Здесь, наряду со старыми общепринятыми тенденциями, присутствуют модерные вкрапления, о которых мы раньше не слышали. Это, например, то, что у Санты есть сын, который, честно сказать, ну так себе, чудаковатый какой-то. И еще важная деталь, знали ли вы, что Санта Клаус летает не на оленях, а на космическом корабле? Нет? Теперь будете знать! В картине раскроется секрет того, как Санта успевает за ночь развезти все подарки...

Продолжительность: 01:37:32
Перевод: Профессиональный (полное дублирование) [Чистый звук]
Выпущено: США, Великобритания, Sony Pictures Animation

Качество: BDRip [1080p]
Видео: 1920x1040, 5961 Кбит/сек, 23,976 кадр/сек, AVC, x264, 16:9, 0.125 Бит/[Пиксели*Кадры], 2pass
Аудио: AC-3, 448 Кбит/сек, 6 канала(ов), 48,0 КГц
Размер: 4,37 ГБ

Бюджет Фильма: $99 000 000
Кассовые сборы: $147 419 472

Релиз от:








Общее
Уникальный идентификатор: 194830221746620944600173466962863622882 (0x9292EF917694205CA4585EC11A208AE2)
Полное имя: E:ЗагрузкиArthur.Christmas.2011.x264.BDRip.1080p.DUB.mkv
Формат: Matroska
Версия формата: Version 2
Размер файла: 4,37 Гбайт
Продолжительность: 1 ч. 37 м.
Общий поток: 6411 Кбит/сек
Дата кодирования: UTC 2012-10-25 15:29:51
Программа кодирования: mkvmerge v5.5.0 ('Healer') built on Apr6 2012 21:43:24
Библиотека кодирования: libebml v1.2.3 + libmatroska v1.3.0

Видео
Идентификатор: 1
Формат: AVC
Формат/Информация: Advanced Video Codec
Профиль формата: [email protected]
Параметр CABAC формата: Да
Параметр ReFrames формата: 4 кадра
Идентификатор кодека: V_MPEG4/ISO/AVC
Продолжительность: 1 ч. 37 м.
Битрейт: 5961 Кбит/сек
Ширина: 1920 пикселей
Высота: 1040 пикселей
Соотношение сторон: 16:9
Соотношение сторон в оригинале: 16:9
Частота кадров: 23,976 кадра/сек
Цветовое пространство: YUV
Субдискретизация насыщенности: 4:2:0
Битовая глубина: 8 бит
Тип развёртки: Прогрессивная
Бит/(Пиксели*Кадры): 0.125
Размер потока: 3,98 Гбайт (91%)
Заголовок: Секретная служба Санта-Клауса
Библиотека кодирования: x264 core 128 r2216 198a7ea
Настройки программы: cabac=1 / ref=4 / deblock=1:0:0 / analyse=0x3:0x133 / me=hex / subme=7 / psy=1 / psy_rd=1.00:0.00 / mixed_ref=1 / me_range=16 / chroma_me=1 / trellis=1 / 8x8dct=1 / cqm=0 / deadzone=21,11 / fast_pskip=1 / chroma_qp_offset=-2 / threads=12 / lookahead_threads=2 / sliced_threads=0 / nr=0 / decimate=1 / interlaced=0 / bluray_compat=0 / constrained_intra=0 / bframes=3 / b_pyramid=2 / b_adapt=1 / b_bias=0 / direct=1 / weightb=1 / open_gop=0 / weightp=2 / keyint=240 / keyint_min=23 / scenecut=40 / intra_refresh=0 / rc_lookahead=40 / rc=2pass / mbtree=1 / bitrate=5961 / ratetol=1.0 / qcomp=0.60 / qpmin=10 / qpmax=51 / qpstep=4 / cplxblur=20.0 / qblur=0.5 / ip_ratio=1.40 / aq=1:1.00
Язык: English
Default: Да
Forced: Нет

Аудио
Идентификатор: 2
Формат: AC-3
Формат/Информация: Audio Coding 3
Расширение режима: CM (complete main)
Идентификатор кодека: A_AC3
Продолжительность: 1 ч. 37 м.
Вид битрейта: Постоянный
Битрейт: 448 Кбит/сек
Каналы: 6 каналов
Расположение каналов: Front: L C R, Side: L R, LFE
Частота: 48,0 КГц
Битовая глубина: 16 бит
Метод сжатия: С потерями
Размер потока: 313 Мбайт (7%)
Заголовок: Дублированный
Язык: Russian
Default: Да
Forced: Нет



Вернуться к началу
 Профиль  
 
   Похожие торренты   Автор   Торрент   Размер 
В этой теме нет новых непрочитанных сообщений. Хороший динозавр / The Good Dinosaur [Мультфильм, фэнтези, комедия, приключения, семейный, 2015] BDRip 1080p, dub [чистый звук]

Dracon

321 | 12

4.5 ГБ

В этой теме нет новых непрочитанных сообщений. Хороший динозавр / The Good Dinosaur (Питер Сон) [2015, Мультфильм, фэнтези, комедия, приключения, семейный, BDRip 1080p | Чистый звук] Dub

marya111

142 | 5

4.51 ГБ

В этой теме нет новых непрочитанных сообщений. Хороший динозавр / The Good Dinosaur [Мультфильм, фэнтези, комедия, приключения, семейный, 2015] BDRip 1080p, dub [3D-Video | чистый звук]

Dracon

39 | 9

14.07 ГБ

В этой теме нет новых непрочитанных сообщений. Я видел, как мама целовала Санта Клауса / I Saw Mommy Kissing Santa Claus [семейный, комедия, 2002] DVDRip-AVC, Mvo

salma3

37 | 11

1.36 ГБ

В этой теме нет новых непрочитанных сообщений. Тайная жизнь домашних животных / The Secret Life of Pets [мультфильм, комедия, семейный, 2016] HDTV 1080p, Dub [Чистый звук]

salma3

2243 | 400

8.37 ГБ

В этой теме нет новых непрочитанных сообщений. Головоломка / Inside Out (Пит Доктер, Роналдо Дель Кармен) [мультфильм, драма, комедия, семейный, 2015] HDTVRip, dub [Чистый звук]

Dracon

4300 | 76

1.45 ГБ

В этой теме нет новых непрочитанных сообщений. Головоломка / Inside Out (Пит Доктер, Роналдо Дель Кармен) [мультфильм, драма, комедия, семейный, 2015] HDTV 720p, dub [Чистый звук]

Dracon

795 | 5

3.91 ГБ


Начать новую тему Ответить на тему  [ 1 сообщение ] 




Для Мосгорсуда, Роскомнадзора и рекламодателей:: mosgorsud-torrent[собачка]yandex.ru
cron