Торрент файл
скачать торрент магнет ссылка Добавлен: 16 мар 2012, 09:47
Размер: 1.37 ГБ
Сидеров: 0
Личеров: 4
Статус: (Dracon)
Автор

СообщениеДобавлено: 16 мар 2012, 09:47 

Не в сети
Зам. Админа
Аватара пользователя
Дата регистрации:
02 дек 2010, 12:39
Спасибо: 12654 / 214
Сообщения: 28010

Страна: США
Слоган: «Новые страницы любимой сказки»
Режиссер: Тарсем Синх
Сценарий: Мелисса Уоллэк,Джейсон Келлер,Мелисса Уоллэк
Продюсер: Берни Голдманн,Райан Кэвэна,Бретт Рэтнер ...
Оператор: Брендан Гэлвин
Композитор: Алан Менкен
Художник: Том Фоден,Рэмси Эйвери,Изабелль Гюэ
Монтаж: Роберт Даффи,Ник Мур
Жанр:фэнтези, драма, комедия, приключения ...

В ролях:
Джулия Робертс,
Лили Коллинз,
Арми Хаммер,
Шон Бин,
Натан Лейн,
Мэр Уиннингхэм,
Майкл Лернер,
Роберт Эммс,
Мартин Клеббэ,
Дэнни Вудберн
...

Студия: -
Продолжительность: 01:35:33
Перевод: Дубляж
Субтитры: Нет

Описание:
Злая Королева, мечтающая выйти замуж за красивого и богатого Принца, хитростью выдворяет из дворца Белоснежку и берет власть в свои руки. Но милая девушка не погибла в темном дремучем лесу, а связалась с бандой гномов-разбойников. Вместе они отомстят Злодейке!

Доп. информация:

Бюджет: $150 000 000
Премьера (мир): 15 марта 2012
Премьера (РФ): 15 марта 2012,Парадиз
Премьера (Укр.): 15 марта 2012,Аврора Фильм
рейтинг MPAA:

General
Complete name : Belosnejka.i.mest.gnomov.2012.D.CAMRip.avi
Format : AVI
Format/Info : Audio Video Interleave
File size : 1.37 GiB
Duration : 1h 35mn
Overall bit rate : 2 050 Kbps
Writing application : VirtualDubMod 1.5.10.2 (build 2540/release)
Writing library : VirtualDubMod build 2540/release

Video #0
ID : 0
Format : MPEG-4 Visual
Codec ID : XVID
Codec ID/Hint : XviD
Duration : 1h 35mn
Bit rate : 711 Kbps
Width : 720 pixels
Height : 352 pixels
Display aspect ratio : 2.045
Frame rate : 25.000 fps
Resolution : 24 bits
Bits/(Pixel*Frame) : 0.112
Stream size : 486 MiB (35%)

Audio #1
ID : 1
Format : MPEG Audio
Codec ID : 55
Codec ID/Hint : MP3
Duration : 1h 35mn
Bit rate : 128 Kbps
Channel(s) : 2 channels
Sampling rate : 48.0 KHz
Stream size : 28.6 MiB (2%)
Alignment : Aligned on interleaves
Interleave, duration : 40 ms (1.00 video frame)
Interleave, preload duration : 504 ms



Формат: AVI
Качество: CAMRip
Видео: 720x352 (2.05:1), 25 fps, XviD MPEG-4 ~1911 kbps avg, 0.30 bit/pixel
Звук: 48 kHz, MPEG Layer 3, 2 ch, ~128.00 kbps avg
Скачать: Семпл





Вернуться к началу
 Профиль  
 
   Похожие торренты   Автор   Торрент   Размер 
В этой теме нет новых непрочитанных сообщений. [Lubed.com] Lily Rader (Mirror, Mirror) Mirror, Mirror [April 24, 2018 г., Gonzo, All sex, 480p]

salma3

0 | 0

326.34 МБ

В этой теме нет новых непрочитанных сообщений. [lubed.com] Lily Rader - Mirror, Mirror [April 24, 2018 г., Gonzo, All sex, 1080p]

salma3

0 | 0

1.25 ГБ

В этой теме нет новых непрочитанных сообщений. [lubed.com] Lily Rader - Mirror, Mirror [April 24, 2018 г., Gonzo, All sex, 720p]

salma3

13 | 4

618.95 МБ

В этой теме нет новых непрочитанных сообщений. [lubed.com] Lily Rader - Mirror, Mirror [April 24, 2018 г., Gonzo, All sex, 4K]

salma3

0 | 0

4.61 ГБ

В этой теме нет новых непрочитанных сообщений. Покрутившись у зеркала, запрыгнула на большой член / Jennifer Jane (Mirror Mirror) (2017) SiteRip

salma3

1 | 0

324.8 МБ

В этой теме нет новых непрочитанных сообщений. Белоснежка и семь гномов (2018) WEB-DL

Dievas

685 | 78

1.04 ГБ

В этой теме нет новых непрочитанных сообщений. Зеркальное отражение / Mirror Images [триллер, драма, 1992] DVDRip, Dvo

salma3

217 | 54

1015.03 МБ


Начать новую тему Ответить на тему  [ 1 сообщение ] 




Для Мосгорсуда, Роскомнадзора и рекламодателей:: mosgorsud-torrent[собачка]yandex.ru
cron