Торрент файл
скачать торрент магнет ссылка Добавлен: 09 апр 2012, 15:58
Размер: 5.52 ГБ
Сидеров: 23
Личеров: 6
Статус: (Dracon)
Автор

СообщениеДобавлено: 09 апр 2012, 15:58 

Не в сети
Зам. Админа
Аватара пользователя
Дата регистрации:
02 дек 2010, 12:39
Спасибо: 12656 / 214
Сообщения: 28010
Михаил КругGrand Collection
Год выхода: 2011
Страна: Россия
Жанр:Шансон
Продолжительность: 02:23:41Восемнадцать лучших клипов и концертных записей маэстро русского шансона Михаила Круга представлены в DVD альбоме популярной серии «Grand Collection». Вслед за своим кумиром юности Владимиром Высоцким, Михаил Круг характеризовал свое творчество «дворовым романсом» , а незадолго до смерти определил свои музыкальный стиль как «русский жанр». Круг сделал шансон понятным и близким для самых различных слушателей. В его песнях есть та необходимая доброта, музыкальность и фактура, которая характерна для талантливых произведений, которые с годами причисляют к классике. Михаил Круг вложил в свои песни так много своей души и понимания жизни, что они до сих пор остаются самыми желанными и исполняемыми шлягерами.
Содержание диска

Клипы 01:14:02



Качество: DVD9
Формат видео: DVD Video
Видео: PAL, 720x576 (4:3), 25,000 кадров/сек, MPEG-2 Video,~6800 Кбит/сек avg, 0.656 bit/pixel
Аудио: 48,0 КГц, AC3, 2 ch, ~192 Кбит/сек
Код:
Общее
Полное имя: S:КОНЦЕРТЫ & КЛИПЫМ.Круг - Grand Collection (2011г.)VIDEO_TSVIDEO_TS.BUP
Формат: DVD Video
Профиль формата: Menu
Размер файла: 14,0 Кбайт
Режим общего битрейта: Переменный

Видео
Идентификатор: 224 (0xE0)
Формат: MPEG Video
Версия формата: Version 2
Вид битрейта: Переменный
Ширина: 720 пикселей
Высота: 576 пикселей
Соотношение сторон: 4:3
Частота кадров: 25,000 кадров/сек
Стандарт вещания: PAL
Метод сжатия: С потерями

Текст
Формат: RLE
Формат/Информация: Run-length encoding
Битовая глубина: 2 бит

Общее
Полное имя: S:КОНЦЕРТЫ & КЛИПЫМ.Круг - Grand Collection (2011г.)VIDEO_TSVIDEO_TS.IFO
Формат: DVD Video
Профиль формата: Menu
Размер файла: 14,0 Кбайт
Режим общего битрейта: Переменный

Видео
Идентификатор: 224 (0xE0)
Формат: MPEG Video
Версия формата: Version 2
Вид битрейта: Переменный
Ширина: 720 пикселей
Высота: 576 пикселей
Соотношение сторон: 4:3
Частота кадров: 25,000 кадров/сек
Стандарт вещания: PAL
Метод сжатия: С потерями

Текст
Формат: RLE
Формат/Информация: Run-length encoding
Битовая глубина: 2 бит

Общее
Полное имя: S:КОНЦЕРТЫ & КЛИПЫМ.Круг - Grand Collection (2011г.)VIDEO_TSVIDEO_TS.VOB
Формат: MPEG-PS
Размер файла: 10,0 Кбайт
Продолжительность: 40 мс.
Общий поток: 2048 Кбит/сек

Видео
Идентификатор: 224 (0xE0)
Формат: MPEG Video
Версия формата: Version 2
Профиль формата: [email protected]
Параметр BVOP формата: Нет
Параметр матрицы формата: Выборочная
Продолжительность: 40 мс.
Максимальный битрейт: 8000 Кбит/сек
Ширина: 720 пикселей
Высота: 576 пикселей
Соотношение сторон: 4:3
Частота кадров: 25,000 кадров/сек
Стандарт вещания: PAL
Цветовое пространство: YUV
Субдискретизация насыщенности: 4:2:0
Битовая глубина: 8 бит
Тип развёртки: Прогрессивная
Порядок развёртки: Верхнее поле первое
Метод сжатия: С потерями

Меню

Общее
Полное имя: S:КОНЦЕРТЫ & КЛИПЫМ.Круг - Grand Collection (2011г.)VIDEO_TSVTS_01_0.BUP
Формат: DVD Video
Профиль формата: Program
Размер файла: 16,0 Кбайт
Продолжительность: 20 с.
Режим общего битрейта: Переменный
Общий поток: 6554 бит/сек

Видео
Идентификатор: 224 (0xE0)
Формат: MPEG Video
Версия формата: Version 2
Продолжительность: 20 с.
Вид битрейта: Переменный
Ширина: 720 пикселей
Высота: 576 пикселей
Соотношение сторон: 4:3
Частота кадров: 25,000 кадров/сек
Стандарт вещания: PAL
Метод сжатия: С потерями

Аудио
Идентификатор: 128 (0x80)
Формат: AC-3
Формат/Информация: Audio Coding 3
Продолжительность: 20 с.
Каналы: 6 каналов
Частота: 48,0 КГц
Метод сжатия: С потерями
Язык: Russian

Меню #1
Продолжительность: 5 с. 960 мс.
00:00:00.000: Chapter 1
List (Audio): 0

Меню #2
Продолжительность: 20 с.
00:00:00.000: Chapter 1
List (Audio): 0

Меню #3

Общее
Полное имя: S:КОНЦЕРТЫ & КЛИПЫМ.Круг - Grand Collection (2011г.)VIDEO_TSVTS_01_0.IFO
Формат: DVD Video
Профиль формата: Program
Размер файла: 16,0 Кбайт
Продолжительность: 20 с.
Режим общего битрейта: Переменный
Общий поток: 6554 бит/сек

Видео
Идентификатор: 224 (0xE0)
Формат: MPEG Video
Версия формата: Version 2
Продолжительность: 20 с.
Вид битрейта: Переменный
Ширина: 720 пикселей
Высота: 576 пикселей
Соотношение сторон: 4:3
Частота кадров: 25,000 кадров/сек
Стандарт вещания: PAL
Метод сжатия: С потерями

Аудио
Идентификатор: 128 (0x80)
Формат: AC-3
Формат/Информация: Audio Coding 3
Продолжительность: 20 с.
Каналы: 6 каналов
Частота: 48,0 КГц
Метод сжатия: С потерями
Язык: Russian

Меню #1
Продолжительность: 5 с. 960 мс.
00:00:00.000: Chapter 1
List (Audio): 0

Меню #2
Продолжительность: 20 с.
00:00:00.000: Chapter 1
List (Audio): 0

Меню #3

Общее
Полное имя: S:КОНЦЕРТЫ & КЛИПЫМ.Круг - Grand Collection (2011г.)VIDEO_TSVTS_01_0.VOB
Формат: MPEG-PS
Размер файла: 10,0 Кбайт
Продолжительность: 40 мс.
Общий поток: 2048 Кбит/сек

Видео
Идентификатор: 224 (0xE0)
Формат: MPEG Video
Версия формата: Version 2
Профиль формата: [email protected]
Параметр BVOP формата: Нет
Параметр матрицы формата: Выборочная
Продолжительность: 40 мс.
Максимальный битрейт: 8000 Кбит/сек
Ширина: 720 пикселей
Высота: 576 пикселей
Соотношение сторон: 4:3
Частота кадров: 25,000 кадров/сек
Стандарт вещания: PAL
Цветовое пространство: YUV
Субдискретизация насыщенности: 4:2:0
Битовая глубина: 8 бит
Тип развёртки: Прогрессивная
Порядок развёртки: Верхнее поле первое
Метод сжатия: С потерями

Меню

Общее
Полное имя: S:КОНЦЕРТЫ & КЛИПЫМ.Круг - Grand Collection (2011г.)VIDEO_TSVTS_01_1.VOB
Формат: MPEG-PS
Размер файла: 19,0 Мбайт
Продолжительность: 19 с.
Режим общего битрейта: Переменный
Общий поток: 8002 Кбит/сек
Библиотека кодирования: (c) 1997-2004 Womble Multimedia, Inc. / MPEG Video Wizard (12/2004) / Jan 15 2005

Видео
Идентификатор: 224 (0xE0)
Формат: MPEG Video
Версия формата: Version 2
Профиль формата: [email protected]
Параметр BVOP формата: Да
Параметр матрицы формата: Выборочная
Параметр GOP формата: M=3, N=15
Продолжительность: 19 с.
Вид битрейта: Переменный
Битрейт: 7395 Кбит/сек
Максимальный битрейт: 8000 Кбит/сек
Ширина: 720 пикселей
Высота: 576 пикселей
Соотношение сторон: 4:3
Частота кадров: 25,000 кадров/сек
Стандарт вещания: PAL
Цветовое пространство: YUV
Субдискретизация насыщенности: 4:2:0
Битовая глубина: 8 бит
Тип развёртки: Чересстрочная
Порядок развёртки: Верхнее поле первое
Метод сжатия: С потерями
Бит/(Пиксели*Кадры): 0.713
Размер потока: 17,6 Мбайт (92%)
Библиотека кодирования: (c) 1997-2004 Womble Multimedia, Inc. / MPEG Video Wizard (12/2004) / Jan 15 2005

Аудио
Идентификатор: 189 (0xBD)-128 (0x80)
Формат: AC-3
Формат/Информация: Audio Coding 3
Расширение режима: CM (complete main)
Параметр Endianness формата: Big
Режим смешивания: DVD-Video
Продолжительность: 19 с.
Вид битрейта: Постоянный
Битрейт: 448 Кбит/сек
Каналы: 6 каналов
Расположение каналов: Front: L C R, Side: L R, LFE
Частота: 48,0 КГц
Битовая глубина: 16 бит
Метод сжатия: С потерями
Задержка видео: -80 мс.
Размер потока: 1,05 Мбайт (6%)

Меню

Общее
Полное имя: S:КОНЦЕРТЫ & КЛИПЫМ.Круг - Grand Collection (2011г.)VIDEO_TSVTS_02_0.BUP
Формат: DVD Video
Профиль формата: Program
Размер файла: 18,0 Кбайт
Продолжительность: 30 с.
Режим общего битрейта: Переменный
Общий поток: 4819 бит/сек

Видео
Идентификатор: 224 (0xE0)
Формат: MPEG Video
Версия формата: Version 2
Продолжительность: 30 с.
Вид битрейта: Переменный
Ширина: 720 пикселей
Высота: 576 пикселей
Соотношение сторон: 4:3
Частота кадров: 25,000 кадров/сек
Стандарт вещания: PAL
Метод сжатия: С потерями

Аудио
Идентификатор: 128 (0x80)
Формат: AC-3
Формат/Информация: Audio Coding 3
Продолжительность: 30 с.
Каналы: 2 канала
Частота: 48,0 КГц
Метод сжатия: С потерями
Язык: Russian

Меню
Продолжительность: 30 с.
00:00:00.000: Chapter 1
List (Audio): 0

Общее
Полное имя: S:КОНЦЕРТЫ & КЛИПЫМ.Круг - Grand Collection (2011г.)VIDEO_TSVTS_02_0.IFO
Формат: DVD Video
Профиль формата: Program
Размер файла: 18,0 Кбайт
Продолжительность: 30 с.
Режим общего битрейта: Переменный
Общий поток: 4819 бит/сек

Видео
Идентификатор: 224 (0xE0)
Формат: MPEG Video
Версия формата: Version 2
Продолжительность: 30 с.
Вид битрейта: Переменный
Ширина: 720 пикселей
Высота: 576 пикселей
Соотношение сторон: 4:3
Частота кадров: 25,000 кадров/сек
Стандарт вещания: PAL
Метод сжатия: С потерями

Аудио
Идентификатор: 128 (0x80)
Формат: AC-3
Формат/Информация: Audio Coding 3
Продолжительность: 30 с.
Каналы: 2 канала
Частота: 48,0 КГц
Метод сжатия: С потерями
Язык: Russian

Меню
Продолжительность: 30 с.
00:00:00.000: Chapter 1
List (Audio): 0

Общее
Полное имя: S:КОНЦЕРТЫ & КЛИПЫМ.Круг - Grand Collection (2011г.)VIDEO_TSVTS_02_0.VOB
Формат: MPEG-PS
Размер файла: 10,0 Кбайт
Продолжительность: 40 мс.
Общий поток: 2048 Кбит/сек

Видео
Идентификатор: 224 (0xE0)
Формат: MPEG Video
Версия формата: Version 2
Профиль формата: [email protected]
Параметр BVOP формата: Нет
Параметр матрицы формата: Выборочная
Продолжительность: 40 мс.
Максимальный битрейт: 8000 Кбит/сек
Ширина: 720 пикселей
Высота: 576 пикселей
Соотношение сторон: 4:3
Частота кадров: 25,000 кадров/сек
Стандарт вещания: PAL
Цветовое пространство: YUV
Субдискретизация насыщенности: 4:2:0
Битовая глубина: 8 бит
Тип развёртки: Прогрессивная
Порядок развёртки: Верхнее поле первое
Метод сжатия: С потерями

Меню

Общее
Полное имя: S:КОНЦЕРТЫ & КЛИПЫМ.Круг - Grand Collection (2011г.)VIDEO_TSVTS_02_1.VOB
Формат: MPEG-PS
Размер файла: 26,4 Мбайт
Продолжительность: 30 с.
Режим общего битрейта: Переменный
Общий поток: 7231 Кбит/сек

Видео
Идентификатор: 224 (0xE0)
Формат: MPEG Video
Версия формата: Version 2
Профиль формата: [email protected]
Параметр BVOP формата: Да
Параметр матрицы формата: Выборочная
Продолжительность: 30 с.
Вид битрейта: Переменный
Битрейт: 6895 Кбит/сек
Максимальный битрейт: 7000 Кбит/сек
Ширина: 720 пикселей
Высота: 576 пикселей
Соотношение сторон: 4:3
Частота кадров: 25,000 кадров/сек
Стандарт вещания: PAL
Цветовое пространство: YUV
Субдискретизация насыщенности: 4:2:0
Битовая глубина: 8 бит
Тип развёртки: Чересстрочная
Порядок развёртки: Верхнее поле первое
Метод сжатия: С потерями
Бит/(Пиксели*Кадры): 0.665
Размер потока: 25,1 Мбайт (95%)

Аудио
Идентификатор: 189 (0xBD)-128 (0x80)
Формат: AC-3
Формат/Информация: Audio Coding 3
Расширение режима: CM (complete main)
Параметр Endianness формата: Big
Режим смешивания: DVD-Video
Продолжительность: 30 с.
Вид битрейта: Постоянный
Битрейт: 192 Кбит/сек
Каналы: 2 канала
Расположение каналов: Front: L R
Частота: 48,0 КГц
Битовая глубина: 16 бит
Метод сжатия: С потерями
Задержка видео: -80 мс.
Размер потока: 717 Кбайт (3%)

Меню

Общее
Полное имя: S:КОНЦЕРТЫ & КЛИПЫМ.Круг - Grand Collection (2011г.)VIDEO_TSVTS_03_0.BUP
Формат: DVD Video
Профиль формата: Program
Размер файла: 100 Кбайт
Продолжительность: 1 ч. 14 м.
Режим общего битрейта: Переменный
Общий поток: 184 бит/сек

Видео
Идентификатор: 224 (0xE0)
Формат: MPEG Video
Версия формата: Version 2
Продолжительность: 1 ч. 14 м.
Вид битрейта: Переменный
Ширина: 720 пикселей
Высота: 576 пикселей
Соотношение сторон: 4:3
Частота кадров: 25,000 кадров/сек
Стандарт вещания: PAL
Метод сжатия: С потерями

Аудио
Идентификатор: 128 (0x80)
Формат: AC-3
Формат/Информация: Audio Coding 3
Продолжительность: 1 ч. 14 м.
Каналы: 2 канала
Частота: 48,0 КГц
Метод сжатия: С потерями
Язык: Russian

Меню #1
Продолжительность: 1 ч. 14 м.
00:00:00.000: Chapter 1
00:04:22.720: Chapter 2
00:07:17.320: Chapter 3
00:11:02.920: Chapter 4
00:15:21.520: Chapter 5
00:18:18.520: Chapter 6
00:21:18.520: Chapter 7
00:24:58.720: Chapter 8
00:29:22.720: Chapter 9
00:33:56.320: Chapter 10
00:38:01.720: Chapter 11
00:41:19.120: Chapter 12
00:45:17.320: Chapter 13
00:50:49.120: Chapter 14
00:53:55.120: Chapter 15
00:59:34.720: Chapter 16
01:05:05.320: Chapter 17
01:09:13.720: Chapter 18
List (Audio): 0

Меню #2
Продолжительность: 4 м. 8 с.
00:00:00.000: Chapter 1
List (Audio): 0

Общее
Полное имя: S:КОНЦЕРТЫ & КЛИПЫМ.Круг - Grand Collection (2011г.)VIDEO_TSVTS_03_0.IFO
Формат: DVD Video
Профиль формата: Program
Размер файла: 100 Кбайт
Продолжительность: 1 ч. 14 м.
Режим общего битрейта: Переменный
Общий поток: 184 бит/сек

Видео
Идентификатор: 224 (0xE0)
Формат: MPEG Video
Версия формата: Version 2
Продолжительность: 1 ч. 14 м.
Вид битрейта: Переменный
Ширина: 720 пикселей
Высота: 576 пикселей
Соотношение сторон: 4:3
Частота кадров: 25,000 кадров/сек
Стандарт вещания: PAL
Метод сжатия: С потерями

Аудио
Идентификатор: 128 (0x80)
Формат: AC-3
Формат/Информация: Audio Coding 3
Продолжительность: 1 ч. 14 м.
Каналы: 2 канала
Частота: 48,0 КГц
Метод сжатия: С потерями
Язык: Russian

Меню #1
Продолжительность: 1 ч. 14 м.
00:00:00.000: Chapter 1
00:04:22.720: Chapter 2
00:07:17.320: Chapter 3
00:11:02.920: Chapter 4
00:15:21.520: Chapter 5
00:18:18.520: Chapter 6
00:21:18.520: Chapter 7
00:24:58.720: Chapter 8
00:29:22.720: Chapter 9
00:33:56.320: Chapter 10
00:38:01.720: Chapter 11
00:41:19.120: Chapter 12
00:45:17.320: Chapter 13
00:50:49.120: Chapter 14
00:53:55.120: Chapter 15
00:59:34.720: Chapter 16
01:05:05.320: Chapter 17
01:09:13.720: Chapter 18
List (Audio): 0

Меню #2
Продолжительность: 4 м. 8 с.
00:00:00.000: Chapter 1
List (Audio): 0

Общее
Полное имя: S:КОНЦЕРТЫ & КЛИПЫМ.Круг - Grand Collection (2011г.)VIDEO_TSVTS_03_0.VOB
Формат: MPEG-PS
Размер файла: 13,9 Мбайт
Продолжительность: 5 м. 30 с.
Общий поток: 354 Кбит/сек

Видео
Идентификатор: 224 (0xE0)
Формат: MPEG Video
Версия формата: Version 2
Профиль формата: [email protected]
Параметр BVOP формата: Нет
Параметр матрицы формата: Выборочная
Продолжительность: 5 м. 30 с.
Битрейт: 155 Кбит/сек
Максимальный битрейт: 8000 Кбит/сек
Ширина: 720 пикселей
Высота: 576 пикселей
Соотношение сторон: 4:3
Частота кадров: 25,000 кадров/сек
Стандарт вещания: PAL
Цветовое пространство: YUV
Субдискретизация насыщенности: 4:2:0
Битовая глубина: 8 бит
Тип развёртки: Прогрессивная
Порядок развёртки: Верхнее поле первое
Метод сжатия: С потерями
Бит/(Пиксели*Кадры): 0.015
Размер потока: 6,10 Мбайт (44%)

Аудио
Идентификатор: 189 (0xBD)-128 (0x80)
Формат: AC-3
Формат/Информация: Audio Coding 3
Расширение режима: CM (complete main)
Параметр Endianness формата: Big
Режим смешивания: DVD-Video
Продолжительность: 5 м. 30 с.
Вид битрейта: Постоянный
Битрейт: 192 Кбит/сек
Каналы: 2 канала
Расположение каналов: Front: L R
Частота: 48,0 КГц
Битовая глубина: 16 бит
Метод сжатия: С потерями
Размер потока: 7,57 Мбайт (54%)

Текст
Идентификатор: 189 (0xBD)-32 (0x20)
Формат: RLE
Формат/Информация: Run-length encoding
Режим смешивания: DVD-Video

Меню

Общее
Полное имя: S:КОНЦЕРТЫ & КЛИПЫМ.Круг - Grand Collection (2011г.)VIDEO_TSVTS_03_1.VOB
Формат: MPEG-PS
Размер файла: 1024 Мбайт
Продолжительность: 20 м.
Общий поток: 7114 Кбит/сек

Видео
Идентификатор: 224 (0xE0)
Формат: MPEG Video
Версия формата: Version 2
Профиль формата: [email protected]
Параметр BVOP формата: Да
Параметр матрицы формата: По умолчанию
Параметр GOP формата: M=3, N=15
Продолжительность: 20 м.
Битрейт: 6800 Кбит/сек
Ширина: 720 пикселей
Высота: 576 пикселей
Соотношение сторон: 4:3
Частота кадров: 25,000 кадров/сек
Стандарт вещания: PAL
Цветовое пространство: YUV
Субдискретизация насыщенности: 4:2:0
Битовая глубина: 8 бит
Тип развёртки: Прогрессивная
Порядок развёртки: Нижнее поле первое
Метод сжатия: С потерями
Бит/(Пиксели*Кадры): 0.656
Размер потока: 976 Мбайт (95%)
Основные цвета: BT.470-2 System B, BT.470-2 System G
Характеристики трансфера: BT.470-2 System B, BT.470-2 System G
Коэффициенты матрицы: BT.470-2 System B, BT.470-2 System G

Аудио
Идентификатор: 189 (0xBD)-128 (0x80)
Формат: AC-3
Формат/Информация: Audio Coding 3
Расширение режима: CM (complete main)
Параметр Endianness формата: Big
Режим смешивания: DVD-Video
Продолжительность: 20 м.
Вид битрейта: Постоянный
Битрейт: 192 Кбит/сек
Каналы: 2 канала
Расположение каналов: Front: L R
Частота: 48,0 КГц
Битовая глубина: 16 бит
Метод сжатия: С потерями
Размер потока: 27,6 Мбайт (3%)

Меню

Общее
Полное имя: S:КОНЦЕРТЫ & КЛИПЫМ.Круг - Grand Collection (2011г.)VIDEO_TSVTS_03_2.VOB
Формат: MPEG-PS
Размер файла: 1024 Мбайт
Продолжительность: 20 м.
Общий поток: 7114 Кбит/сек

Видео
Идентификатор: 224 (0xE0)
Формат: MPEG Video
Версия формата: Version 2
Профиль формата: [email protected]
Параметр BVOP формата: Да
Параметр матрицы формата: По умолчанию
Параметр GOP формата: M=3, N=15
Продолжительность: 20 м.
Битрейт: 6800 Кбит/сек
Ширина: 720 пикселей
Высота: 576 пикселей
Соотношение сторон: 4:3
Частота кадров: 25,000 кадров/сек
Стандарт вещания: PAL
Цветовое пространство: YUV
Субдискретизация насыщенности: 4:2:0
Битовая глубина: 8 бит
Тип развёртки: Прогрессивная
Порядок развёртки: Нижнее поле первое
Метод сжатия: С потерями
Бит/(Пиксели*Кадры): 0.656
Размер потока: 976 Мбайт (95%)
Основные цвета: BT.470-2 System B, BT.470-2 System G
Характеристики трансфера: BT.470-2 System B, BT.470-2 System G
Коэффициенты матрицы: BT.470-2 System B, BT.470-2 System G

Аудио
Идентификатор: 189 (0xBD)-128 (0x80)
Формат: AC-3
Формат/Информация: Audio Coding 3
Расширение режима: CM (complete main)
Параметр Endianness формата: Big
Режим смешивания: DVD-Video
Продолжительность: 20 м.
Вид битрейта: Постоянный
Битрейт: 192 Кбит/сек
Каналы: 2 канала
Расположение каналов: Front: L R
Частота: 48,0 КГц
Битовая глубина: 16 бит
Метод сжатия: С потерями
Задержка видео: -192 мс.
Размер потока: 27,6 Мбайт (3%)

Меню

Общее
Полное имя: S:КОНЦЕРТЫ & КЛИПЫМ.Круг - Grand Collection (2011г.)VIDEO_TSVTS_03_3.VOB
Формат: MPEG-PS
Размер файла: 1024 Мбайт
Продолжительность: 20 м.
Общий поток: 7114 Кбит/сек

Видео
Идентификатор: 224 (0xE0)
Формат: MPEG Video
Версия формата: Version 2
Профиль формата: [email protected]
Параметр BVOP формата: Да
Параметр матрицы формата: По умолчанию
Параметр GOP формата: M=3, N=15
Продолжительность: 20 м.
Битрейт: 6800 Кбит/сек
Ширина: 720 пикселей
Высота: 576 пикселей
Соотношение сторон: 4:3
Частота кадров: 25,000 кадров/сек
Стандарт вещания: PAL
Цветовое пространство: YUV
Субдискретизация насыщенности: 4:2:0
Битовая глубина: 8 бит
Тип развёртки: Прогрессивная
Порядок развёртки: Нижнее поле первое
Метод сжатия: С потерями
Бит/(Пиксели*Кадры): 0.656
Размер потока: 976 Мбайт (95%)
Основные цвета: BT.470-2 System B, BT.470-2 System G
Характеристики трансфера: BT.470-2 System B, BT.470-2 System G
Коэффициенты матрицы: BT.470-2 System B, BT.470-2 System G

Аудио
Идентификатор: 189 (0xBD)-128 (0x80)
Формат: AC-3
Формат/Информация: Audio Coding 3
Расширение режима: CM (complete main)
Параметр Endianness формата: Big
Режим смешивания: DVD-Video
Продолжительность: 20 м.
Вид битрейта: Постоянный
Битрейт: 192 Кбит/сек
Каналы: 2 канала
Расположение каналов: Front: L R
Частота: 48,0 КГц
Битовая глубина: 16 бит
Метод сжатия: С потерями
Задержка видео: -224 мс.
Размер потока: 27,6 Мбайт (3%)

Меню

Общее
Полное имя: S:КОНЦЕРТЫ & КЛИПЫМ.Круг - Grand Collection (2011г.)VIDEO_TSVTS_03_4.VOB
Формат: MPEG-PS
Размер файла: 1024 Мбайт
Продолжительность: 12 с.
Общий поток: 704 Мбит/сек

Видео
Идентификатор: 224 (0xE0)
Формат: MPEG Video
Версия формата: Version 2
Профиль формата: [email protected]
Параметр BVOP формата: Да
Параметр матрицы формата: По умолчанию
Параметр GOP формата: M=3, N=15
Продолжительность: 12 с.
Битрейт: 690 Мбит/сек
Максимальный битрейт: 6800 Кбит/сек
Ширина: 720 пикселей
Высота: 576 пикселей
Соотношение сторон: 4:3
Частота кадров: 25,000 кадров/сек
Стандарт вещания: PAL
Цветовое пространство: YUV
Субдискретизация насыщенности: 4:2:0
Битовая глубина: 8 бит
Тип развёртки: Прогрессивная
Порядок развёртки: Нижнее поле первое
Метод сжатия: С потерями
Бит/(Пиксели*Кадры): 66.528
Размер потока: 1003 Мбайт (98%)
Основные цвета: BT.470-2 System B, BT.470-2 System G
Характеристики трансфера: BT.470-2 System B, BT.470-2 System G
Коэффициенты матрицы: BT.470-2 System B, BT.470-2 System G

Аудио
Идентификатор: 189 (0xBD)-128 (0x80)
Формат: AC-3
Формат/Информация: Audio Coding 3
Расширение режима: CM (complete main)
Параметр Endianness формата: Big
Режим смешивания: DVD-Video
Продолжительность: 12 с.
Вид битрейта: Постоянный
Битрейт: 192 Кбит/сек
Каналы: 2 канала
Расположение каналов: Front: L R
Частота: 48,0 КГц
Битовая глубина: 16 бит
Метод сжатия: С потерями
Задержка видео: -224 мс.
Размер потока: 286 Кбайт (0%)

Меню

Общее
Полное имя: S:КОНЦЕРТЫ & КЛИПЫМ.Круг - Grand Collection (2011г.)VIDEO_TSVTS_03_5.VOB
Формат: MPEG-PS
Размер файла: 1024 Мбайт
Продолжительность: 40 м.
Режим общего битрейта: Переменный
Общий поток: 3541 Кбит/сек

Видео
Идентификатор: 224 (0xE0)
Формат: MPEG Video
Версия формата: Version 2
Профиль формата: [email protected]
Параметр BVOP формата: Да
Параметр матрицы формата: Выборочная
Параметр GOP формата: M=3, N=12
Продолжительность: 40 м.
Вид битрейта: Переменный
Битрейт: 3279 Кбит/сек
Максимальный битрейт: 8500 Кбит/сек
Ширина: 720 пикселей
Высота: 576 пикселей
Соотношение сторон: 4:3
Частота кадров: 25,000 кадров/сек
Стандарт вещания: PAL
Цветовое пространство: YUV
Субдискретизация насыщенности: 4:2:0
Битовая глубина: 8 бит
Тип развёртки: Чересстрочная
Порядок развёртки: Верхнее поле первое
Метод сжатия: С потерями
Бит/(Пиксели*Кадры): 0.316
Размер потока: 948 Мбайт (93%)
Основные цвета: SMPTE 170M
Характеристики трансфера: SMPTE 170M
Коэффициенты матрицы: SMPTE 170M

Аудио
Идентификатор: 189 (0xBD)-128 (0x80)
Формат: AC-3
Формат/Информация: Audio Coding 3
Расширение режима: CM (complete main)
Параметр Endianness формата: Big
Режим смешивания: DVD-Video
Продолжительность: 40 м.
Вид битрейта: Постоянный
Битрейт: 192 Кбит/сек
Каналы: 2 канала
Расположение каналов: Front: L R
Частота: 48,0 КГц
Битовая глубина: 16 бит
Метод сжатия: С потерями
Задержка видео: -256 мс.
Размер потока: 55,5 Мбайт (5%)

Меню

Общее
Полное имя: S:КОНЦЕРТЫ & КЛИПЫМ.Круг - Grand Collection (2011г.)VIDEO_TSVTS_03_6.VOB
Формат: MPEG-PS
Размер файла: 473 Мбайт
Продолжительность: 11 с.
Режим общего битрейта: Переменный
Общий поток: 361 Мбит/сек

Видео
Идентификатор: 224 (0xE0)
Формат: MPEG Video
Версия формата: Version 2
Профиль формата: [email protected]
Параметр BVOP формата: Да
Параметр матрицы формата: Выборочная
Параметр GOP формата: M=3, N=12
Продолжительность: 11 с.
Вид битрейта: Переменный
Битрейт: 353 Мбит/сек
Максимальный битрейт: 8500 Кбит/сек
Ширина: 720 пикселей
Высота: 576 пикселей
Соотношение сторон: 4:3
Частота кадров: 25,000 кадров/сек
Стандарт вещания: PAL
Цветовое пространство: YUV
Субдискретизация насыщенности: 4:2:0
Битовая глубина: 8 бит
Тип развёртки: Чересстрочная
Порядок развёртки: Верхнее поле первое
Метод сжатия: С потерями
Бит/(Пиксели*Кадры): 34.066
Размер потока: 463 Мбайт (98%)
Основные цвета: SMPTE 170M
Характеристики трансфера: SMPTE 170M
Коэффициенты матрицы: SMPTE 170M

Аудио
Идентификатор: 189 (0xBD)-128 (0x80)
Формат: AC-3
Формат/Информация: Audio Coding 3
Расширение режима: CM (complete main)
Параметр Endianness формата: Big
Режим смешивания: DVD-Video
Продолжительность: 11 с.
Вид битрейта: Постоянный
Битрейт: 192 Кбит/сек
Каналы: 2 канала
Расположение каналов: Front: L R
Частота: 48,0 КГц
Битовая глубина: 16 бит
Метод сжатия: С потерями
Задержка видео: -200 мс.
Размер потока: 258 Кбайт (0%)

Меню




Вернуться к началу
 Профиль  
 
   Похожие торренты   Автор   Торрент   Размер 
В этой теме нет новых непрочитанных сообщений. Теннис. ATP Slam US Open 2017. 2-й круг. Роджер Федерер — Михаил Южный [31.08] (2017) IPTV 1080p | 50 fps

salma3

7 | 4

6.15 ГБ

В этой теме нет новых непрочитанных сообщений. Михаил Шаргин - Неизданное (Мы зарулили с корешком...) [2013, Шансон, MP3]

salma3

15 | 3

91.63 МБ

В этой теме нет новых непрочитанных сообщений. Тайный круг / The Secret Circle [S01] [драма, фэнтези, 2011] WEB-DL 720p, Mvo [LostFilm]

salma3

0 | 22

31.53 ГБ

В этой теме нет новых непрочитанных сообщений. Ma grand mère et moi / Ma Grand Mere Et Moi (Max Antoine, Fred Coppula Prod) [2012 г., Gonzo, Teens,Older, Interracial,Mature, DVDRip]

salma3

0 | 0

1.05 ГБ

В этой теме нет новых непрочитанных сообщений. Замкнутый круг [01-04 из 04] [Драма, мелодрама, 2018] SATRip

salma3

57 | 16

2.15 ГБ

В этой теме нет новых непрочитанных сообщений. Круг / Bleed [ужасы, триллер, 2016] WEB-DLRip, Dvo

salma3

1033 | 106

1.36 ГБ

В этой теме нет новых непрочитанных сообщений. Круг / Bleed [ужасы, триллер, 2016] WEB-DL 720p, Dvo

salma3

359 | 39

2.56 ГБ


Начать новую тему Ответить на тему  [ 1 сообщение ] 




Для Мосгорсуда, Роскомнадзора и рекламодателей:: mosgorsud-torrent[собачка]yandex.ru
cron