Торрент файл
скачать торрент магнет ссылка Добавлен: 11 дек 2014, 13:39
Размер: 117.06 МБ
Сидеров: 12
Личеров: 4
Автор

СообщениеДобавлено: 11 дек 2014, 13:39 

Не в сети
Супермодератор
Аватара пользователя
Дата регистрации:
15 фев 2012, 16:44
Возраст: 28
Спасибо: 7224 / 2147
Сообщения: 67845
Jennifer Lopez ft Iggy Azalea - Booty
Формат: WEBRip 1080p, MP4, H.264, AAC
Песня: Booty
Жанр: Pop
Продолжительность: 00:04:16
Год выпуска: 2014

Видео: 1920x1080р (16:9), 23,976 fps, AVC (x264) [email protected], ~ 3691 kbps avg, 0.074 bit/pixel
Аудио: 44,1KHz, AAC-LC, 2ch, ~ 126 Kbps avg

Доп. информация:

Общее
Полное имя : D:\Downloads\Jennifer Lopez ft Iggy Azalea - Booty.mp4
Формат : MPEG-4
Профиль формата : Base Media
Идентификатор кодека : isom
Размер файла : 117 Мбайт
Продолжительность : 4 м. 16 с.
Общий поток : 3823 Кбит/сек
Программа кодирования : Lavf55.19.102

Видео
Идентификатор : 1
Формат : AVC
Формат/Информация : Advanced Video Codec
Профиль формата : [email protected]
Параметр CABAC формата : Да
Параметр ReFrames формата : 2 кадра
Идентификатор кодека : avc1
Идентификатор кодека/Информация : Advanced Video Coding
Продолжительность : 4 м. 16 с.
Битрейт : 3691 Кбит/сек
Ширина : 1920 пикселей
Высота : 1080 пикселей
Соотношение сторон : 16:9
Режим частоты кадров : Переменный
Частота кадров : 23,976 кадра/сек
Минимальная частота кадров : 23,974 кадра/сек
Максимальная частота кадров : 23,981 кадра/сек
Цветовое пространство : YUV
Субдискретизация насыщенности : 4:2:0
Битовая глубина : 8 бит
Тип развёртки : Прогрессивная
Бит/(Пиксели*Кадры) : 0.074
Размер потока : 113 Мбайт (97%)

Аудио
Идентификатор : 2
Формат : AAC
Формат/Информация : Advanced Audio Codec
Профиль формата : LC
Идентификатор кодека : 40
Продолжительность : 4 м. 16 с.
Вид битрейта : Постоянный
Битрейт : 126 Кбит/сек
Каналы : 2 канала
Расположение каналов : Front: L R
Частота : 44,1 КГц
Метод сжатия : С потерями
Задержка видео : 42 мс.
Размер потока : 3,85 Мбайт (3%)









_________________
Проголосуй за трекер Открытый торрент трекер - RUS-MEDIA.ORG

Проголосуй Открытый торрент трекер - RUS-MEDIA.ORG


Вернуться к началу
 Профиль Отправить личное сообщение  
 
   Похожие торренты   Автор   Торрент   Размер 
В этой теме нет новых непрочитанных сообщений. [GloryHole.com / DogFartNetwork.com] Jennifer White - Jennifer White's Second Appearance (01.06.2018) [2018 г., IR, Big Black Cock, 2 on 1, Anal, ATM, Big Booty, Brunette, Creampie, Fetish, Hairy, No Tattoos, Swallow, 1080p]

salma3

0 | 0

1.8 ГБ

В этой теме нет новых непрочитанных сообщений. [InterracialBlowbang.com / DogFartNetwork.com] Jennifer White - Gangbang Jennifer White (02.11.2017) [2017 г., Big Booty, BlowBang, Brunette, Bukakke, Facial, Hairy, No Tattoos, Swallow, 720p]

salma3

8 | 3

1.07 ГБ

В этой теме нет новых непрочитанных сообщений. [GloryHole.com / DogFartNetwork.com] Jennifer White - Jennifer White's Second Appearance (01.06.2018) [2018 г., IR, Big Black Cock, 2 on 1, Anal, ATM, Big Booty, Brunette, Creampie, Fetish, Hairy, No Tattoos, Swallow, 720p]

salma3

0 | 0

830.13 МБ

В этой теме нет новых непрочитанных сообщений. Desiree Lopez - Big Booty Recruit (2017) SiteRip

salma3

0 | 0

326.07 МБ

В этой теме нет новых непрочитанных сообщений. [CuckoldSessions.com / DogFartNetwork.com] Jennifer White - Jennifer White's Second Appearance (15.04.2018) [2018 г., DP, GangBang, IR, Big Black Cock, Cuckold, Anal, Anal Creampie, ATM, Big Booty, Brunette, Creampie, Facial, Hairy, 10

salma3

0 | 1

2.93 ГБ

В этой теме нет новых непрочитанных сообщений. [CuckoldSessions.com / DogFartNetwork.com] Jennifer White - Jennifer White's Second Appearance (15.04.2018) [2018 г., DP, GangBang, IR, Big Black Cock, Cuckold, Anal, Anal Creampie, ATM, Big Booty, Brunette, Creampie, Facial, Hairy, 43

salma3

38 | 13

465.96 МБ

В этой теме нет новых непрочитанных сообщений. [WDLC] Nasty Hardcore Latinas / Харкорные Латинки (Jessica Dee, Platinum X Pictures) [2004 г., Latina, Anal, Facial, Gonzo, Gaping, DVDRip] Sativa Rose, Ava Ramon, Jennifer Luv, Chiquita Lopez, Shay Lamar

salma3

7 | 2

1.37 ГБ


Начать новую тему Ответить на тему  [ 1 сообщение ] 




Для Мосгорсуда, Роскомнадзора и рекламодателей:: mosgorsud-torrent[собачка]yandex.ru
cron