Торрент файл
скачать торрент магнет ссылка Добавлен: 08 авг 2013, 10:07
Размер: 1.84 ГБ
Сидеров: 181
Личеров: 7
Автор

СообщениеДобавлено: 08 авг 2013, 10:07 

Не в сети
Зам. Админа
Аватара пользователя
Дата регистрации:
02 дек 2010, 12:39
Спасибо: 12654 / 214
Сообщения: 28010
Король и Шут. Последнее "Нашествие"



Год выпуска: 2013
Жанр: хоррор-панк, фолк-панк, панк-рок
Продолжительность: 00:42:28
Состав группы:

Александр Щиголев
Яков Цвиркунов
Павел Сажинов
Александр Леонтьев
Бывшие
участники
Михаил Горшенёв †
Нефедова Мария
Александр Балунов
Дмитрий Ришко
Андрей Князев
Сергей Захаров
Алексей Горшенёв

О концерте:
Памяти Михаила Горшенёва.
Концертное выступление группы "Король и Шут" на фестивале "Нашествие-2013"

1) Исповедь вампира
2) Садовник
3) Дурак и молния
4) Он не знает, что такое жить
5) Паника в селе
6) Мёртвый анархист
7) Северный флот
8) Фокусник
9) Танец злобного гения
10) Проклятый старый дом
11) Лесник
12) Счастье

Выделяется своим необычным для классического панк-рока стилем. Песни группы представляют собой небольшие законченные истории, часто в фэнтезийном, мистическом, а также историческом ключе. Изначально преобладающий в музыкальной составляющей ритмичный панк-рок, со временем вышел за границы стиля, и на данный момент музыка группы вобрала в себя множество элементов: фолк-рок («Акустический альбом»), арт-панк («Театръ демона»), стрит-панк («Бунт на корабле») и многие другие.
Сценический имидж группы постоянно меняется и часто включает в себя грим, соответствующий тематике песен.
В ночь с 18 на 19 июля 2013 года в своём доме в Санкт-Петербурге на 40-м году жизни умер вокалист группы «Король и Шут» Михаил Горшенёв[

Формат: Mp4 (x264)
Качество: WEBRip
Видео: 1920x1080, 25 fps, 5997 Kbps AVC level 4.0, Bits/(Pixel*Frame) 0.116
Аудио: 192 Kbps AAC, 2 ch, 44.1Khz

General
Complete name : E:Король и Шут. Последнее Нашествие.mp4
Format : MPEG-4
Format profile : Base Media / Version 2
Codec ID : mp42
File size : 1.84 GiB
Duration : 42mn 28s
Overall bit rate mode : Variable
Overall bit rate : 6 192 Kbps
Encoded date : UTC 2013-07-28 17:43:51
Tagged date : UTC 2013-07-28 17:43:51
gsst : 0
gstd : 2548250
gssd : BB22DFB46HH1375642646131061
gshh : r3---sn-gvnuxaxjvh-304l.c.youtube.com
Video
ID : 1
Format : AVC
Format/Info : Advanced Video Codec
Format profile : [email protected]
Format settings, CABAC : Yes
Format settings, ReFrames : 1 frame
Format settings, GOP : M=1, N=50
Codec ID : avc1
Codec ID/Info : Advanced Video Coding
Duration : 42mn 28s
Bit rate : 5 997 Kbps
Maximum bit rate : 16.1 Mbps
Width : 1 920 pixels
Height : 1 080 pixels
Display aspect ratio : 16:9
Frame rate mode : Constant
Frame rate : 25.000 fps
Color space : YUV
Chroma subsampling : 4:2:0
Bit depth : 8 bits
Scan type : Progressive
Bits/(Pixel*Frame) : 0.116
Stream size : 1.78 GiB (97%)
Tagged date : UTC 2013-07-28 17:48:59
Audio
ID : 2
Format : AAC
Format/Info : Advanced Audio Codec
Format profile : LC
Codec ID : 40
Duration : 42mn 28s
Bit rate mode : Variable
Bit rate : 192 Kbps
Maximum bit rate : 202 Kbps
Channel(s) : 2 channels
Channel positions : Front: L R
Sampling rate : 44.1 KHz
Compression mode : Lossy
Stream size : 58.3 MiB (3%)
Title : IsoMedia File Produced by Google, 5-11-2011
Encoded date : UTC 2013-07-28 17:47:23
Tagged date : UTC 2013-07-28 17:48:59



Вернуться к началу
 Профиль  
 
   Похожие торренты   Автор   Торрент   Размер 
В этой теме нет новых непрочитанных сообщений. Король и Шут - Акустический Альбом [1999, Рок, Панк, APE]

salma3

9 | 2

412.8 МБ

В этой теме нет новых непрочитанных сообщений. Панк рок каверы 5 [2015, Punk, Rock, Covers, Mp3]

salma3

0 | 1

724.44 МБ

В этой теме нет новых непрочитанных сообщений. Гражданская Оборона - Реанимация (Vinyl Rip) [2015, Русский рок, панк, MP3]

salma3

4 | 0

154.31 МБ

В этой теме нет новых непрочитанных сообщений. Сборник - Русский Фолк-Рок и Фолк-Металл [2013-2015, folk, rock, metall, MP3]

salma3

0 | 0

382.98 МБ

В этой теме нет новых непрочитанных сообщений. Нашествие / The Hive [Фантастика, ужасы, 2008] WEB-DL 1080p, Dvo

salma3

57 | 27

7.06 ГБ

В этой теме нет новых непрочитанных сообщений. Король / Deo king [драма, криминал, 2017] WEBRip, Mvo

salma3

311 | 121

1.42 ГБ

В этой теме нет новых непрочитанных сообщений. Король обезьян: Начало / The Monkey King the Legend Begins [фэнтези, боевик, приключения, 2016] WEBRip, Avo

salma3

774 | 23

1.46 ГБ


Начать новую тему Ответить на тему  [ 1 сообщение ] 




Для Мосгорсуда, Роскомнадзора и рекламодателей:: mosgorsud-torrent[собачка]yandex.ru
cron