Торрент файл
скачать торрент магнет ссылка Добавлен: 13 июл 2013, 14:39
Размер: 5.17 ГБ
Сидеров: 0
Личеров: 3
Статус: (Aleksandr.ru)
Автор

СообщениеДобавлено: 13 июл 2013, 14:39 

Не в сети
2 Звезды
Аватара пользователя
Дата регистрации:
10 окт 2010, 20:23
Возраст: 62
Спасибо: 179 / 0
Сообщения: 323
Откуда: КРАСНОГОРСК
Dio - Holy Diver Liven



Год выпуска: 2006
Жанр: Hard Rock
Выпущено: Eagle Rock Entertainment, Spitfire Records
Исполнитель: Dio

Выступление легендарной группы было записано в Лондоне в 2005 году во время тура "Holy Diver Live". Этот "живой" альбом был записан в 2005 году в полностью распроданном Лондонском зале. "Holy Diver Live" содержит полностью весь классический альбом "Holy Diver", впервые исполненный и записанный в таком виде. Также в трек-лист включены различные композиции из обширного творческого архива Ronnie, среди них "Heaven And Hell", "Sign of the Southern Cross" и "Mob Rules" из эпохи BLACK SABBATH, "Tarot Woman", "Man on the Silver Mountain" и "Long Live Rock 'N' Roll" из эпохи RAINBOW и "We Rock" из сольной карьеры маэстро.

Качество: DVDRip-AVC
Формат: MPEG-4
Видео кодек: H264
Видео: 6234Кбит/сек,1024х576(16/9),в 25.000кадр/сек,AVC([email protected])(1Ref Frames)
Аудио кодек: AAC
Аудио Russian Dolby Digital 5.1: 247Кбит/сек,44.1КГц,6каналов,AAC,(Version4)(LC)

01. Tarot Woman
02. The Sign Of The Southern Cross
03. One Night In The City
04. Stand Up And Shout
05. Holy Diver
06. Gypsy
07. Caught In The Middle
08. Don't Talk To Strangers
09. Straight Through The Heart
10. Invisible
11. Rainbow In The Dark
12. Shame On The Night
13. Gates Of Babylon
14. Heaven & Hell
15. Man On The Silver Mountain
16. Long Live Rock 'N' Roll
17. We Rock


General
Полное имя : D:\Новая папка (3)\DIO\Dio_-_Holy_Diver_Live_2006_DD5.1_х264_Nikolai.Baranov_DVDRipAVC\Dio_-_Holy_Diver_Live_2006_DD5.1_х264_Nikolai.Baranov_DVDRipAVC.mp4
Формат : MPEG-4
Профиль формата : Base Media
Идентификатор кодека : isom
Размер файла : 5.16 GiB
Продолжительность : 1h 53mn
Режим общего битрейта : Variable
Общий поток : 6 488 Kbps
Дата кодирования : UTC 2013-07-11 14:46:37
Дата пометки : UTC 2013-07-11 14:46:37
Программа кодирования : Lavf51.12.1

Video
Идентификатор : 1
Формат : AVC
Формат/Информация : Advanced Video Codec
Профиль формата : [email protected]
Параметр CABAC формата : No
Параметр ReFrames формата : 1 frame
Параметр GOP формата : M=1, N=12
Идентификатор кодека : avc1
Идентификатор кодека/Информация : Advanced Video Coding
Продолжительность : 1h 53mn
Вид битрейта : Variable
Битрейт : 6 234 Kbps
Максимальный битрейт : 9 000 Kbps
Ширина : 1 024 pixels
Высота : 576 pixels
Соотношение сторон : 16:9
Режим частоты кадров : Constant
Частота кадров : 25.000 fps
Частота кадров в оригинале : 24.000 fps
Цветовое пространство : YUV
Субдискретизация насыщенности : 4:2:0
Битовая глубина : 8 bits
Тип развёртки : Progressive
Бит/(Пиксели*Кадры) : 0.423
Размер потока : 4.96 GiB (96%)
Дата кодирования : UTC 2013-07-11 14:46:37
Дата пометки : UTC 2013-07-11 14:46:37

Audio
Идентификатор : 2
Формат : AAC
Формат/Информация : Advanced Audio Codec
Профиль формата : LC
Идентификатор кодека : 40
Продолжительность : 1h 53mn
Вид битрейта : Variable
Битрейт : 247 Kbps
Каналы : 6 channels
Расположение каналов : Front: L C R, Side: L R, LFE
Частота : 44.1 KHz
Метод сжатия : Lossy
Размер потока : 202 MiB (4%)
Дата кодирования : UTC 2013-07-11 14:46:37
Дата пометки : UTC 2013-07-11 14:46:37








Релиз от: Nikolai.Baranov







_________________

Легко быть оптимистом, когда судьба не валит с ног тяжелыми ударами, а лишь иногда легонько шлепает по заднице.


Вернуться к началу
 Профиль Отправить личное сообщение  
 
   Похожие торренты   Автор   Торрент   Размер 
В этой теме нет новых непрочитанных сообщений. Сборник клипов - Hard Rock and Metal от ALEXnROCK Диск 2 [51 шт.] [Rock, Metal, 2017] DVDRip

salma3

16 | 6

4.26 ГБ

В этой теме нет новых непрочитанных сообщений. Сборник клипов - Hard Rock and Metal: Part 4 [Rock, Metal, 2017] DVDRip

salma3

6 | 3

4.19 ГБ

В этой теме нет новых непрочитанных сообщений. Whitesnake - The Purple Album [Japanese Edition] [2015, Hard Rock, Classic Rock, MP3]

salma3

5 | 0

175.45 МБ

В этой теме нет новых непрочитанных сообщений. Крепкий орешек 4.0 / Live Free or Die Hard [боевик, триллер, приключения, 2007] WEB-DLRip-AVC, Dub [Open Matte]

salma3

40 | 19

2.18 ГБ

В этой теме нет новых непрочитанных сообщений. [WildOnCam.com / CherryPimps.com] Alexis Fawx (Excited To Fuck For You LIVE / 2017-05-04 / 15695) Excited To Fuck For You LIVE [Big Tits, Blonde, Facials, Feet, Hardcore, Lingerie, Live Show, MILF, Pile Driver, 1080p]

salma3

32 | 10

5.35 ГБ

В этой теме нет новых непрочитанных сообщений. Святые узы брака / Holy Matrimony [комедия, криминал, 1994] HDRip, Mvo

salma3

31 | 5

1.46 ГБ

В этой теме нет новых непрочитанных сообщений. Святые узы брака / Holy Matrimony [комедия, криминал, 1994] BDRip 720p, Mvo+Dvo+Avo+Sub

salma3

48 | 22

4.36 ГБ


Начать новую тему Ответить на тему  [ 1 сообщение ] 




Для Мосгорсуда, Роскомнадзора и рекламодателей:: mosgorsud-torrent[собачка]yandex.ru
cron