Торрент файл
скачать торрент магнет ссылка Добавлен: 06 июл 2013, 11:07
Размер: 10.45 ГБ
Сидеров: 54
Личеров: 17
Статус: (Aleksandr.ru)
Автор

СообщениеДобавлено: 06 июл 2013, 11:07 

Не в сети
Супермодератор
Аватара пользователя
Дата регистрации:
22 май 2010, 12:40
Спасибо: 2165 / 101
Сообщения: 2958
Откуда: Н.Новгород
Информация о фильме
Название: KISS: The Kiss Monster World Tour - Live from Hallenstadion
Год выхода: 2013
Жанр: Hard rock, heavy metal, concert
Исполнители: Пол Стэнли (ритм-гитара, вокал), Джин Симмонс (бас-гитара, вокал), Эрик Сингер (ударные, бэк-вокал), Томми Тайер (соло-гитара, бэк-вокал)
О концерте:
Эпическое шоу 20 июня 2013 г. на Hallenstadion в Цюрихе в рамках мирового тура The Kiss Monster.
Выпущено: McGhee Entertainment
Продолжительность: 01:55:08

1. Psycho Circus
2. Shout It Out Loud
3. Let Me Go, Rock 'N' Roll
4. I Love It Loud
5. Hell or Hallelujah
6. War Machine
7. Heaven's on Fire
8. Deuce
9. Say Yeah
10. Shock Me
11. Outta This World
12. God of Thunder
13. Lick It Up
14. Love Gun
15. Rock and Roll All Nite
16. Detroit Rock City
17. I Was Made for Lovin' You
18 Black Diamond
19. God Gave Rock 'n' Roll to You II


Файл
Кодек: MPEG-4 AVC
Качество: HDTVRip 1080p
Видео: 1920x1080 29,970 fps, 12605 kbps
Звук:
English: AC3, 384 Kbps (6 ch)
Семпл
Общее
Уникальный идентификатор : 178986256061916742433358404555989219963 (0x86A77FBFAA7D5A9AB17AF91835827A7B)
Полное имя : The.Kiss.Monster.World.Tour.2013.HDTVRip.1080р.mkv
Формат : Matroska
Версия формата : Version 4 / Version 2
Размер файла : 10,4 Гбайт
Продолжительность : 1 ч. 55 м.
Общий поток : 13,0 Мбит/сек
Название фильма : ☭WIDDER☭
Дата кодирования : UTC 2013-07-04 11:47:09
Программа кодирования : mkvmerge v6.3.0 ('You can't stop me!') built on Jun 28 2013 20:09:41
Библиотека кодирования : libebml v1.3.0 + libmatroska v1.4.0

Видео
Идентификатор : 1
Формат : AVC
Формат/Информация : Advanced Video Codec
Профиль формата : [email protected]
Параметр CABAC формата : Да
Параметр ReFrames формата : 4 кадра
Идентификатор кодека : V_MPEG4/ISO/AVC
Продолжительность : 1 ч. 55 м.
Битрейт : 12,6 Мбит/сек
Ширина : 1920 пикселей
Высота : 1080 пикселей
Соотношение сторон : 16:9
Режим частоты кадров : Постоянный
Частота кадров : 29,970 кадров/сек
Цветовое пространство : YUV
Субдискретизация насыщенности : 4:2:0
Битовая глубина : 8 бит
Тип развёртки : Прогрессивная
Бит/(Пиксели*Кадры) : 0.203
Размер потока : 9,93 Гбайт (95%)
Заголовок : KISS: The Kiss Monster World Tour (2013)
Библиотека кодирования : x264 core 133 r2334 a3ac64b
Настройки программы : cabac=1 / ref=4 / deblock=1:-3:-3 / analyse=0x3:0x133 / me=umh / subme=10 / psy=1 / psy_rd=1.00:0.00 / mixed_ref=1 / me_range=32 / chroma_me=1 / trellis=2 / 8x8dct=1 / cqm=0 / deadzone=21,11 / fast_pskip=0 / chroma_qp_offset=-2 / threads=12 / lookahead_threads=1 / sliced_threads=0 / nr=0 / decimate=1 / interlaced=0 / bluray_compat=0 / constrained_intra=0 / bframes=6 / b_pyramid=2 / b_adapt=2 / b_bias=0 / direct=3 / weightb=1 / open_gop=0 / weightp=2 / keyint=300 / keyint_min=30 / scenecut=40 / intra_refresh=0 / rc_lookahead=60 / rc=2pass / mbtree=0 / bitrate=12605 / ratetol=1.0 / qcomp=0.60 / qpmin=0 / qpmax=69 / qpstep=4 / cplxblur=20.0 / qblur=0.5 / vbv_maxrate=50000 / vbv_bufsize=50000 / nal_hrd=none / ip_ratio=1.40 / pb_ratio=1.30 / aq=1:1.00
Язык : English
Default : Да
Forced : Нет

Аудио
Идентификатор : 2
Формат : AC-3
Формат/Информация : Audio Coding 3
Расширение режима : CM (complete main)
Параметр Endianness формата : Big
Идентификатор кодека : A_AC3
Продолжительность : 1 ч. 55 м.
Вид битрейта : Постоянный
Битрейт : 384 Кбит/сек
Каналы : 6 каналов
Расположение каналов : Front: L C R, Side: L R, LFE
Частота : 48,0 КГц
Битовая глубина : 16 бит
Метод сжатия : С потерями
Размер потока : 316 Мбайт (3%)
Заголовок : AC3, 384 Kbps (6 ch)
Язык : English
Default : Да
Forced : Нет
____________________________________________
x264 [info]: frame I:1096 Avg QP:20.15 size:137359
x264 [info]: frame P:52762 Avg QP:21.55 size: 82601
x264 [info]: frame B:153188 Avg QP:23.32 size: 41728
x264 [info]: consecutive B-frames: 2.5% 3.5% 31.8% 7.6% 6.0% 46.5% 2.1%




Релиз от:



Вернуться к началу
 Профиль Отправить личное сообщение  
 
   Похожие торренты   Автор   Торрент   Размер 
В этой теме нет новых непрочитанных сообщений. Скуби-Ду и KISS: Тайна рок-н-ролла / Scooby-Doo! And Kiss: Rock and Roll Mystery (Спайк Брандт, Тони Червоне) [Мультфильм, семейный, 2015] DVDRip, dub [Чистый звук]

Dracon

7 | 0

1.37 ГБ

В этой теме нет новых непрочитанных сообщений. [CherryPimps.com / WildOnCam.com] JoJo Kiss - Cum And See Jojo Kiss LIVE [April 20, 2018 г., DoggyStyle, Hardcore, Reverse CowGirl , Shaved , Tattoos, Brunette, 4K]

salma3

0 | 0

12.56 ГБ

В этой теме нет новых непрочитанных сообщений. Прощальный поцелуй / The Last Kiss [Комедия, мелодрама, драма, 2006] ВDRip 1080р, Dub+Sub

salma3

122 | 123

3.88 ГБ

В этой теме нет новых непрочитанных сообщений. Поцелуй вампира / Vampire's Kiss [комедия, ужасы, 1988] BDRemux 1080р, Dub+Sub

salma3

16 | 6

17.22 ГБ

В этой теме нет новых непрочитанных сообщений. [ReadyOrNotHereICum.com / CumLouder.com] Melany Kiss - Melany Kiss: Licking and Kissing (05.10.2017) [Natural Tits, Big Ass, Hardcore, Nacho Vidal, Pretty, Big Cocks, Horny Spanish Girl]

salma3

18 | 6

292.46 МБ

В этой теме нет новых непрочитанных сообщений. [ScamAngels.com / PornDoePremium.com] Jojo Kiss & Arya Fae - JOJO KISS AND ARYA FAE HOT THREEWAY SCAM FUCK (02.06.2018) [All Sex, Blowjob, Treesome, 480p]

salma3

0 | 0

653.83 МБ

В этой теме нет новых непрочитанных сообщений. [Relaxxxed.com / PornDoePremium.com] Cherry Kiss - Serbian beauty Cherry Kiss gets drenched in oil for sensual massage & sex (2017-08-26, Massage, All Sex, 480p]

salma3

5 | 2

432.39 МБ


Начать новую тему Ответить на тему  [ 1 сообщение ] 




Для Мосгорсуда, Роскомнадзора и рекламодателей:: mosgorsud-torrent[собачка]yandex.ru
cron