Торрент файл
скачать торрент магнет ссылка Добавлен: 10 мар 2013, 08:56
Размер: 4.52 ГБ
Сидеров: 9
Личеров: 2
Автор

СообщениеДобавлено: 10 мар 2013, 08:56 

Не в сети
Супермодератор
Аватара пользователя
Дата регистрации:
22 май 2010, 12:40
Спасибо: 2165 / 101
Сообщения: 2958
Откуда: Н.Новгород

Информация о фильме
Название: Иисус Христос - суперзвезда
Оригинальное название: Jesus Christ Superstar "Live Arena Tour"
Год выхода: 2012
Жанр: Мюзикл, рок-опера
Режиссер: Лоуренс Коннор
В ролях: Тим Минчин, Мелани Си, Бен Форстер, Крис Мойлз

О фильме:
Запись живого исполнения cовременной версии классической рок-оперы Эндрю Ллойда Уэббера, адаптированной специально для исполнения на больших площадках (Арена-рок). Роль Иуды исполнил австралийский актер Тим Минчин, неоднократный лауреат престижных американских и британских премий в жанре музыкальной комедии. Мелани Си, наиболее известная как участница "Спайс Герлз" - самой успешной женской группы в музыкальной истории Великобритании, сыграла Марию Магдалину. Популярный ведущий английского утреннего шоу Крис Мойлз выступил в роли царя Ирода, а победитель конкурса телеканала ITV "Суперзвезда" Бен Фостер исполнил роль Иисуса. После премьеры, прошедшей перед 12-тысячной аудиторией на стадионе в Манчестере, сэр Эндрю признался, что всегда мечтал увидеть постановку именно в таком виде, подчеркнув, что она изначально не планировалась для исполнения на театральных подмостках, а бродвейская версия вообще напоминает ему травести-шоу.


Страна: UK
Студия: Великобритания, Really Useful Films, Universal Pictures, Arena Tour (Arena rock)
Продолжительность: 01:44:01
Перевод: Не требуется

Файл
Кодек: MPEG-4 AVC/H.264
Качество: BDRip
Видео: 1920x1080, 16:9, ~4500 kbps, 25 fps
Звук:
Аудиокодек: DTS, AC3
Аудио #1: DTS, 6 ch, 1510 kbps, 48 kHz, 24 bits
Аудио #2: AC3, 2 ch, 192 kbps, 48 kHz, 16 bits
Субтитры: Английские (вшитые)

Сохранены оригинальные чаптеры с Blu Ray

Общее
Уникальный идентификатор : 236411176657610276137095314403633523901 (0xB1DB22ED28E81B23AD6886CD9591ECBD)
Полное имя : Jesus.Christ.Superstar_Live.Arena.Tour.2012.BDRip.1080p.drony.mkv
Формат : Matroska
Версия формата : Version 4 / Version 2
Размер файла : 4,52 Гбайт
Продолжительность : 1 ч. 44 м.
Режим общего битрейта : Переменный
Общий поток : 6218 Кбит/сек
Дата кодирования : UTC 2013-03-09 11:40:53
Программа кодирования : mkvmerge v6.1.0 ('Old Devil') built on Mar 2 2013 14:32:37
Библиотека кодирования : libebml v1.3.0 + libmatroska v1.4.0

Видео
Идентификатор : 1
Формат : AVC
Формат/Информация : Advanced Video Codec
Профиль формата : [email protected]
Параметр CABAC формата : Да
Параметр ReFrames формата : 3 кадра
Идентификатор кодека : V_MPEG4/ISO/AVC
Продолжительность : 1 ч. 44 м.
Вид битрейта : Переменный
Битрейт : 4500 Кбит/сек
Максимальный битрейт : 40,0 Мбит/сек
Ширина : 1920 пикселей
Высота : 1080 пикселей
Соотношение сторон : 16:9
Частота кадров : 25,000 кадров/сек
Цветовое пространство : YUV
Субдискретизация насыщенности : 4:2:0
Битовая глубина : 8 бит
Тип развёртки : Прогрессивная
Бит/(Пиксели*Кадры) : 0.087
Размер потока : 3,19 Гбайт (71%)
Заголовок : drony
Библиотека кодирования : x264 core 130 r2273 b3065e6

Язык : English
Default : Да
Forced : Нет
Основные цвета : BT.709-5, BT.1361, IEC 61966-2-4, SMPTE RP177
Характеристики трансфера : BT.709-5, BT.1361
Коэффициенты матрицы : BT.709-5, BT.1361, IEC 61966-2-4 709, SMPTE RP177

Аудио #1
Идентификатор : 2
Формат : DTS
Формат/Информация : Digital Theater Systems
Идентификатор кодека : A_DTS
Продолжительность : 1 ч. 44 м.
Вид битрейта : Постоянный
Битрейт : 1510 Кбит/сек
Каналы : 6 каналов
Расположение каналов : Front: L C R, Side: L R, LFE
Частота : 48,0 КГц
Битовая глубина : 24 бит
Метод сжатия : С потерями
Размер потока : 1,10 Гбайт (24%)
Заголовок : DTS, 6 ch, 1510 kbps, 48 kHz, 24 bits
Язык : English
Default : Да
Forced : Нет

Аудио #2
Идентификатор : 3
Формат : AC-3
Формат/Информация : Audio Coding 3
Расширение режима : CM (complete main)
Параметр Endianness формата : Big
Идентификатор кодека : A_AC3
Продолжительность : 1 ч. 44 м.
Вид битрейта : Постоянный
Битрейт : 192 Кбит/сек
Каналы : 2 канала
Расположение каналов : Front: L R
Частота : 48,0 КГц
Битовая глубина : 16 бит
Метод сжатия : С потерями
Размер потока : 143 Мбайт (3%)
Заголовок : AC3, 2 ch, 192 kbps, 48 kHz
Язык : English
Default : Нет
Forced : Нет

Текст
Идентификатор : 4
Формат : PGS
Режим смешивания : zlib
Идентификатор кодека : S_HDMV/PGS
Идентификатор кодека/Информация : The same subtitle format used on BDs/HD-DVDs
Язык : English
Default : Да
Forced : Нет

Меню
00:00:00.000 : en:00:00:00.000
00:04:59.200 : en:00:04:59.200
00:09:30.840 : en:00:09:30.840
00:12:03.680 : en:00:12:03.680
00:13:44.480 : en:00:13:44.480
00:18:04.800 : en:00:18:04.800
00:21:45.280 : en:00:21:45.280
00:24:43.720 : en:00:24:43.720
00:28:06.600 : en:00:28:06.600
00:30:09.120 : en:00:30:09.120
00:31:47.960 : en:00:31:47.960
00:37:03.920 : en:00:37:03.920
00:37:38.840 : en:00:37:38.840
00:41:29.040 : en:00:41:29.040
00:47:26.200 : en:00:47:26.200
00:54:46.560 : en:00:54:46.560
01:01:26.800 : en:01:01:26.800
01:04:22.000 : en:01:04:22.000
01:05:49.360 : en:01:05:49.360
01:08:33.960 : en:01:08:33.960
01:12:42.840 : en:01:12:42.840
01:15:27.640 : en:01:15:27.640
01:20:56.640 : en:01:20:56.640
01:27:22.800 : en:01:27:22.800
01:31:58.960 : en:01:31:58.960
01:33:54.960 : en:01:33:54.960
01:36:54.840 : en:01:36:54.840

Рип сделал с блюрея Jesus Christ Superstar - (Live Arena Tour) (2012) [1080i] Blu-Ray. Оставил оригинальные две звуковые дорожки, субтитры и чаптеры для удобного перемещения по главам. Приятного просмотра!







Вернуться к началу
 Профиль Отправить личное сообщение  
 
   Похожие торренты   Автор   Торрент   Размер 
В этой теме нет новых непрочитанных сообщений. Сьюзи суперзвезда 3 / Suzie Superstar 3 (1989) DVDRip

salma3

3 | 2

1.25 ГБ

В этой теме нет новых непрочитанных сообщений. MagmaFilm - Аннина суперзвезда / Annina Superstar (2008) DVDRip-AVC | Rus

salma3

8 | 0

1.58 ГБ

В этой теме нет новых непрочитанных сообщений. Христос под следствием / The Case for Christ [драма, 2017] HDRip, Dvo

salma3

194 | 27

1.45 ГБ

В этой теме нет новых непрочитанных сообщений. Без четверти два до нашей эры / Deux heures moins le quart avant Jésus-Christ [комедия, 1982] BDRip, Mvo

salma3

63 | 18

1.45 ГБ

В этой теме нет новых непрочитанных сообщений. Генетическая опера / Repo! The Genetic Opera [мюзикл, ужасы, фантастика, 2008] BDRip 720p, Mvo

salma3

2 | 3

4.88 ГБ

В этой теме нет новых непрочитанных сообщений. Черный Иисус / Black Jesus [02x01-07] (Майк Клаттенбёрг) [2015, комедия, HDTVRip 720p | Jimmy J]

Nickolas3435

30 | 25

3.85 ГБ

В этой теме нет новых непрочитанных сообщений. Бесстрашный 2 / Dabangg 2 [мюзикл, боевик, драма, 2012] BDRip 1080p, Mvo

salma3

49 | 33

12.39 ГБ


Начать новую тему Ответить на тему  [ 1 сообщение ] 




Для Мосгорсуда, Роскомнадзора и рекламодателей:: mosgorsud-torrent[собачка]yandex.ru
cron