Торрент файл
скачать торрент магнет ссылка Добавлен: 21 ноя 2012, 21:15
Размер: 2.01 ГБ
Сидеров: 64
Личеров: 10
Статус: (Aleksandr.ru)
Автор

СообщениеДобавлено: 21 ноя 2012, 21:15 

Не в сети
Супермодератор
Аватара пользователя
Дата регистрации:
22 май 2010, 12:40
Спасибо: 2165 / 101
Сообщения: 2958
Откуда: Н.Новгород


Led Zeppelin - Celebration Day
(2 CD)


Оригинальное название: Celebration Day (Live at London O2 Arena 2007)
Год выпуска: 2012
Жанр:Hard Rock
Выпущено: США, Warner Music
Режиссер: Дик Каррутерс
Исполнитель: Led Zeppelin, Роберт Плант, Джон Пол Джонс, Джимми Пейдж
Продолжительность: 02:04:05
Перевод: Не требуется

Грандиозный концерт группы Led Zeppelin на площадке O2 Arena в Лондоне, который посетили 18 тысяч зрителей из 20 миллионов желающих.
Порядок песен (стартуют ребята символично с «Good Times Bad Times» – первой песни первого альбома 1969 года), освещение, работа операторов – здесь все подернуто духом реконструкции, но с искренним ощущением чуда. Никакие фильтры и ракурсы не сделали бы за группу то, что она смогла – пересилить давно вызревшие конфликты, играть в восемь рук, без минуса (кроме как в «Kashmir») самую живую и чувственную музыку XX века. Едва ли найдется много групп, относящихся к себе так требовательно, так самозабвенно оттачивающих свое мастерство. Сплав техничности и блюзовой интуиции – таковы Led Zeppelin на своем пике. Львиная харизма Роберта Планта, солидная виртуозность Пейджа не могут оставить равнодушным меломана. Да и не меломана тоже – настолько удачно в камеру попали тонкие психологические мостки, наведенные между участниками. В случае с Led Zeppelin это чуть ли не решающий фактор, от которого зависит сыгранность команды. Хотя прослезиться под «Celebration Day», можно сказать, что и не зазорно: 16 великих и таких знакомых песен, дружные полубоги на сцене, золотистый свет на золотистых же кудрях Планта. На фоне восторга нельзя не заметить, как напряжена поначалу группа (меньше всех, пожалуй, Плант, как не отвыкший от сцены, и гораздо больше – Джонс, всегда готовый скорректировать вектор). К середине концерта химия «сплава» берет свое – это понимаешь, когда видишь, как 63-летний Пейдж подпрыгивает с двугрифовой гитарой наперевес, улыбаясь Джейсону Бонэму за ударными. Сегодня, конечно, все песни Led Zeppelin считаются классикой и золотым фондом, но «Stairway to Heaven» всегда была и будет на особом положении. В том, как Роберт воздел глаза к небу после финальной строчки и сообщил: «Ahmet, we did it!» была, конечно, игра в легенду. Но для них это почти не игра: Led Zeppelin и есть легенда, «величайшая в мире группа», как сообщают нам титры. Это определенно самое захватывающее, что можно посмотреть в экране этой осенью. Один финал – искрящийся, драйвовый, мощный «Rock'n'Roll» чего стоит. На кинозал снисходит счастливый "дзэн", и хочется, очень хочется, чтобы они вернулись.






Качество: HDRip
Контейнер: AVI
Видео кодек: XviD
Аудио кодек: MP3, AC3
Видео: XviD, 1526 Kbps, 720x400, 29.970 fps
Аудио#1: MP3, 2.0, 320 Kbps, 48.0 KHz, 16 bits
Аудио#2: AC3, 5.1, 448 Kbps, 48.0 KHz, 16 bits


01. Good Times Bad Times
02. Ramble On
03. Black Dog
04. In My Time Of Dying
05. For Your Life
06. Trampled Under Foot
07. Nobody's Fault But Mine
08. No Quarter
09. Since I've Been Loving You
10. Dazed And Confused
11. Stairway To Heaven
12. The Song Remains The Same
13. Misty Mountain Hop
14. Kashmir
15. Whole Lotta Love
16. Rock And Roll

General
Complete name: Led.Zeppelin_Celebration.Day-Live.at.London.O2.Arena.2007_2012.XviD.HDRip.avi
Format: AVI
Format/Info: Audio Video Interleave
Format profile: OpenDML
File size: 2.01 GiB
Duration: 2h 4mn
Overall bit rate: 2 317 Kbps
Movie name: Led Zeppelin - Celebration Day (Live at London O2 Arena 2007)
Writing application: VirtualDubMod 1.5.10.2 (build 2540/release)
Writing library: VirtualDubMod build 2540/release

Video
ID: 0
Format: MPEG-4 Visual
Format profile: Advanced [email protected]
Format settings, BVOP: 4
Format settings, QPel: No
Format settings, GMC: No warppoints
Format settings, Matrix: Default (MPEG)
Codec ID: XVID
Codec ID/Hint: XviD
Duration: 2h 4mn
Bit rate: 1 526 Kbps
Width: 720 pixels
Height: 400 pixels
Display aspect ratio: 16:9
Frame rate: 29.970 fps
Color space: YUV
Chroma subsampling: 4:2:0
Bit depth: 8 bits
Scan type: Progressive
Compression mode: Lossy
Bits/(Pixel*Frame): 0.177
Stream size: 1.32 GiB (66%)
Writing library: XviD 64

Audio #1
ID: 1
Format: MPEG Audio
Format version: Version 1
Format profile: Layer 3
Codec ID: 55
Codec ID/Hint: MP3
Duration: 2h 4mn
Bit rate mode: Constant
Bit rate: 320 Kbps
Channel(s): 2 channels
Sampling rate: 48.0 KHz
Compression mode: Lossy
Stream size: 284 MiB (14%)
Alignment: Aligned on interleaves
Interleave, duration: 33 ms (1.00 video frame)
Interleave, preload duration: 504 ms
Writing library: LAME3.99r
Encoding settings: -m s -V 4 -q 2 -lowpass 20.5

Audio #2
ID: 2
Format: AC-3
Format/Info: Audio Coding 3
Mode extension: CM (complete main)
Codec ID: 2000
Duration: 2h 4mn
Bit rate mode: Constant
Bit rate: 448 Kbps
Channel(s): 6 channels
Channel positions: Front: L C R, Side: L R, LFE
Sampling rate: 48.0 KHz
Bit depth: 16 bits
Compression mode: Lossy
Stream size: 397 MiB (19%)
Alignment: Split accross interleaves
Interleave, duration: 33 ms (1.00 video frame)
Interleave, preload duration: 500 ms




Вернуться к началу
 Профиль Отправить личное сообщение  
 
   Похожие торренты   Автор   Торрент   Размер 
В этой теме нет новых непрочитанных сообщений. Private Gold 124: A Double Penetration Celebration / Праздник Двойного Проникновения (Ettore Buchi / Private) [2012 г., Feature, Anal, DP, 540p, WEB-DL](Split Scenes)

salma3

3 | 1

1.96 ГБ

В этой теме нет новых непрочитанных сообщений. Kendall Kayden New Years Smores Celebration (2016) 1080p

salma3

3 | 2

1.12 ГБ

В этой теме нет новых непрочитанных сообщений. Rise of the Tomb Raider: 20 Year Celebration [v.1.0.767.2] [Action, 3D, 3rd Person, 2016] [RePack]

salma3

1227 | 406

16.51 ГБ

В этой теме нет новых непрочитанных сообщений. [BangBus.com / BangBros.com] Stella Raee - 4th of July Celebration on The Bus (04.07.2018) [All Sex, Blowjobs, Big Ass, 1080p]

salma3

0 | 0

3.9 ГБ

В этой теме нет новых непрочитанных сообщений. Rise of the Tomb Raider: 20 Year Celebration [Action, 3D, 3rd Person, 2016] [Лицензия]

salma3

504 | 431

33.79 ГБ

В этой теме нет новых непрочитанных сообщений. Rise of the Tomb Raider: 20 Year Celebration [v.1.0.767.2] [Action, 3D, 3rd Person, 2016] [RePack]

salma3

229 | 110

15.96 ГБ

В этой теме нет новых непрочитанных сообщений. [SexArt.com / MetArt.com] Clea Gaultier - Celebration Oral Sex Reloaded (20.05.2018) [Brunette, Tattoo, Trimmed, Fingering, Kissing, Cunnilingus, Blow Job, Boy-Girl, Couple Sex]

salma3

14 | 5

317.91 МБ


СообщениеДобавлено: 17 июн 2013, 21:21 

Не в сети
Аватара пользователя
Дата регистрации:
14 апр 2013, 12:56
Спасибо: 0 / 2
Сообщения: 15
Дааа... Пэйдж уже не тот молодой энергичный :) А вот Пол Джоунс вроде бы не чего сохранился ;)


Вернуться к началу
 Профиль Отправить личное сообщение  
 

СообщениеДобавлено: 14 янв 2016, 15:11 

Не в сети
Аватара пользователя
Дата регистрации:
03 янв 2016, 15:24
Спасибо: 0 / 0
Сообщения: 2
Отличный концерт. Любимая группа с ранней молодости. Классика не умирает!!! :music: :music: :music:


Вернуться к началу
 Профиль Отправить личное сообщение  
 
Начать новую тему Ответить на тему  [ Сообщений: 3 ] 




Для Мосгорсуда, Роскомнадзора и рекламодателей:: mosgorsud-torrent[собачка]yandex.ru
cron
cron