Торрент файл
скачать торрент магнет ссылка Добавлен: 28 окт 2012, 10:16
Размер: 16.17 ГБ
Сидеров: 8
Личеров: 4
Статус: (Aleksandr.ru)
Автор

СообщениеДобавлено: 28 окт 2012, 10:16 

Не в сети
Супермодератор
Аватара пользователя
Дата регистрации:
22 май 2010, 12:40
Спасибо: 2165 / 101
Сообщения: 2958
Откуда: Н.Новгород
Информация о фильме
Название: The Doors - Live at the Bowl '68
Год выхода: 2012
Жанр: Psychedelic rock, blues rock, acid rock, hard rock, jazz rock, concert
Исполнители: Jim Morrison, Ray Manzarek, John Densmore, Robby Krieger
О концерте:
Знаменитое выступление The Doors - Live at the Bowl'68. Материал был полностью восстановлен с оригинальных негативов, а аудио полностью пересведено и прошло новый ремастеринг с оригинальных мультитрековых записей.
Track listing
01. Show Start / Intro
02. When The Music's Over
03. Alabama Song (Whisky Bar)
04. Back Door Man
05. Five To One
06. Back Door Man (Reprise)
07. The Wasp (Texas Radio And The Big Beat)
08. Hello, I Love You
09. Moonlight Drive
10. Horse Latitudes
11. A Little Game
12. The Hill Dwellers
13. Spanish Caravan
14. Hey, What Would You Guys Like To Hear?
15. Wake Up!
16. Light My Fire
17. Light My Fire (Segue)
18. The Unknown Soldier
19. The End (Segue)
20. The End

Выпущено: США / Eagle Rock Entertainment
Продолжительность: 01:11:06

Файл
Кодек: MPEG-4 AVC
Качество: BDRemux 1080p
Видео: 1920x1080, 23,976 fps, 30,4 Мbps
Звук: DTS, 1509 kbps, 24-bit (6 ch)

Общее
Уникальный идентификатор: 250706574828430600502429924849646365928 (0xBC9C54790634B17A804BC8FDCA60ECE8)
Полное имя: The.Doors.Live.At.the.Bowl.MPEG4.AVC.2012.BDRemux.1080p.mkv
Формат: Matroska
Версия формата: Version 2
Размер файла: 16,2 Гбайт
Продолжительность: 1 ч. 11 м.
Режим общего битрейта: Переменный
Общий поток: 32,6 Мбит/сек
Название фильма: ☭WIDDER☭
Дата кодирования: UTC 2012-10-27 22:16:26
Программа кодирования: mkvmerge v4.5.0 ('Speed of Light') сборка от Feb1 2011 02:10:32
Библиотека кодирования: libebml v1.2.0 + libmatroska v1.1.0

Видео
Идентификатор: 1
Формат: AVC
Формат/Информация: Advanced Video Codec
Профиль формата: [email protected]
Параметр CABAC формата: Да
Параметр ReFrames формата: 4 кадра
Параметр GOP формата: M=3, N=18
Идентификатор кодека: V_MPEG4/ISO/AVC
Продолжительность: 1 ч. 11 м.
Вид битрейта: Переменный
Битрейт: 30,4 Мбит/сек
Максимальный битрейт: 35,0 Мбит/сек
Ширина: 1920 пикселей
Высота: 1080 пикселей
Соотношение сторон: 16:9
Режим частоты кадров: Постоянный
Частота кадров: 23,976 кадра/сек
Стандарт вещания: NTSC
Цветовое пространство: YUV
Субдискретизация насыщенности: 4:2:0
Битовая глубина: 8 бит
Тип развёртки: Прогрессивная
Бит/(Пиксели*Кадры): 0.612
Размер потока: 15,1 Гбайт (93%)
Заголовок: The Doors - Live at the Bowl '68 (2012) BDRemux 1080p
Язык: English
Default: Да
Forced: Нет
Основные цвета: BT.709
Характеристики трансфера: BT.709
Коэффициенты матрицы: BT.709

Аудио
Идентификатор: 2
Формат: DTS
Формат/Информация: Digital Theater Systems
Профиль формата: 96/24 / Core
Идентификатор кодека: A_DTS
Продолжительность: 1 ч. 11 м.
Вид битрейта: Постоянный
Битрейт: 1510 Кбит/сек
Каналы: 6 каналов
Расположение каналов: Front: L C R, Side: L R, LFE
Частота: 96,0 КГц / 48,0 КГц
Битовая глубина: 24 бит
Метод сжатия: С потерями
Размер потока: 768 Мбайт (5%)
Заголовок: DTS Core: 6.1 / 48 kHz / 1509 kbps / 24-bit
Язык: English
Default: Да
Forced: Нет

Меню
00:00:00.000: :Chapter 01
00:02:31.943: :Chapter 02
00:13:12.416: :Chapter 03
00:14:46.302: :Chapter 04
00:17:19.204: :Chapter 05
00:18:49.044: :Chapter 06
00:20:09.625: :Chapter 07
00:22:01.903: :Chapter 08
00:24:15.078: :Chapter 09
00:27:35.153: :Chapter 10
00:28:43.513: :Chapter 11
00:30:03.593: :Chapter 12
00:32:26.152: :Chapter 13
00:35:30.002: :Chapter 14
00:36:09.167: :Chapter 15
00:37:40.925: :Chapter 16
00:39:13.601: :Chapter 17
00:47:50.868: :Chapter 18
00:52:31.106: :Chapter 19
00:53:35.086: :Chapter 20





Вернуться к началу
 Профиль Отправить личное сообщение  
 
   Похожие торренты   Автор   Торрент   Размер 
В этой теме нет новых непрочитанных сообщений. Black Rainbows - Discography [Psychedelic Rock, Stoner Rock, 2007-2016] MP3 / 320 kbps

salma3

0 | 0

661.38 МБ

В этой теме нет новых непрочитанных сообщений. Чичерина (Юлия Чичерина) - Дискография [2000 - 2012, Rock , Alternative Rock , Pop Rock, MP3]

salma3

3 | 3

3.05 ГБ

В этой теме нет новых непрочитанных сообщений. Whitesnake - The Purple Album [Japanese Edition] [2015, Hard Rock, Classic Rock, MP3]

salma3

5 | 0

175.45 МБ

В этой теме нет новых непрочитанных сообщений. VA - Летний марафон № 187 (Время Rock'n'Roll Новинок) [2015, Indie, Rock, Punk, Alternative, HDTVRip 1080p]

Hestin

21 | 3

3.19 ГБ

В этой теме нет новых непрочитанных сообщений. Сборник клипов - Hard Rock and Metal от ALEXnROCK Диск 2 [51 шт.] [Rock, Metal, 2017] DVDRip

salma3

16 | 6

4.26 ГБ

В этой теме нет новых непрочитанных сообщений. Сборник клипов - Hard Rock and Metal: Part 4 [Rock, Metal, 2017] DVDRip

salma3

6 | 3

4.19 ГБ

В этой теме нет новых непрочитанных сообщений. Eric Stewart (ex-10cc) - Girls [Pop-Rock, Classic Rock, 1980] MP3 / 320 kbps

salma3

17 | 5

88.41 МБ


Начать новую тему Ответить на тему  [ 1 сообщение ] 




Для Мосгорсуда, Роскомнадзора и рекламодателей:: mosgorsud-torrent[собачка]yandex.ru
cron