Торрент файл
скачать торрент магнет ссылка Добавлен: 28 окт 2012, 09:14
Размер: 1.38 ГБ
Сидеров: 2
Личеров: 1
Статус: (Aleksandr.ru)
Автор

СообщениеДобавлено: 28 окт 2012, 09:14 

Не в сети
Супермодератор
Аватара пользователя
Дата регистрации:
22 май 2010, 12:40
Спасибо: 2165 / 101
Сообщения: 2958
Откуда: Н.Новгород
Blackmore's Night - A Knight in York (Live)
Жанр: Medieval Folk Rock
Продолжительность: 1:35:15 + бонус
Год выпуска: 2012
Описание: Blackmore’s Night - A Knight In York был снят и записан во время тура по Великобритании в York Grand Opera House 30 сентября 2011 года. Он охватывает все волшебство потрясающего шоу Candice, Ritchie & Co.
Треклист:
01 Locked Within The Crystal Ball
02 Guilded Cage
03 The Circle
04 Journeyman
05 World Of Stone
06 The Peasant's Promise
07 Toast To Tomorrow
08 Fire's At Midnight
09 Barbara Allen
10 Darkness
11 Dance Of The Darkness
12 Dandelion Wine
13 All The Fun Of The Fayre
14 First Of May
+ виды под музыку A Day in York (0:02:51)
Качество: BDRip-AVC (источник)
Контейнер: MKV
Видео кодек: H.264
Аудио кодек: AAC
Видео: x264, 768x432 (16:9), 1807 kbps, 24 fps
Аудио: AAC, 2.0, 198 kbps, 48 kHz
Главы: подписаны
A Day in York
Видео: x264, 768x432 (16:9), 1879 kbps, 24 fps
Аудио: AC3, 2.0, 192 kbps, 48 kHz
Скриншоты
Подробные технические данные
Обработка в AVISynth:
DGDecode_MPEG2Source("Video.d2v", CPU=4) # прибиваем блочность
Dither_convert_8_to_16()
Dither_resize16(768,432)
DitherPost() # дизеринг вместо округления
Настройки x264:
--level 3.1 --preset veryslow --tune film --crf 17 --deblock -3:-3 --bframes 16
--vbv-bufsize 7500 --vbv-maxrate 7500 --qpfile "chapters.txt"
--colorprim bt709 --transfer bt709 --colormatrix bt709
Из логов:
Концерт:
x264 [info]: frame I:795 Avg QP:12.74 size: 56616 [средний GOP ~ 173]
x264 [info]: frame P:28224 Avg QP:16.20 size: 22254 [число B/P ~ 3,8]
x264 [info]: frame B:108130 Avg QP:19.31 size: 5713
x264 [info]: consecutive B-frames: 0.9% 0.8% 4.5% 26.2% 23.5% 38.2% 3.7% 0.9% 0.6% 0.3% 0.1% 0.0% 0.1% 0.0% 0.0% 0.0% 0.1%
x264 [info]: ref P L0: 41.9% 6.4% 16.2% 7.9% 5.9% 4.9% 3.9% 2.6% 2.2% 2.1% 1.9% 1.8% 1.8% [13] 0.4% 0.0%
x264 [info]: kb/s:1807.05
Слайд-шоу:
x264 [info]: frame I:19 Avg QP:14.02 size: 78485 [средний GOP ~ 215]
x264 [info]: frame P:1310 Avg QP:17.77 size: 22546 [число B/P ~ 2,1]
x264 [info]: frame B:2765 Avg QP:21.36 size: 3269
x264 [info]: consecutive B-frames: 12.9% 5.5% 9.6% 30.8% 8.8% 14.8% 3.6% 2.1% 1.3% 2.2% 0.3% 0.9% 0.3% 1.7% 0.4% 2.0% 2.9%
x264 [info]: ref P L0: 59.8% 19.0% 11.6% 2.5% 1.8% 1.3% 1.1% 0.6% 0.5% 0.5% 0.4% 0.4% 0.4% [13] 0.1% 0.0%
x264 [info]: kb/s:1878.90
Звук - из PCM 24 bit в QuickTime AAC true VBR v91 (очень хорошее качество)
В слайд-шоу - копия AC3 2.0 192 kbps
MediaInfo:
General
Unique ID : 228574738954837507288789447170546414224 (0xABF5E4B7B89AE2D4B648EEE185BB3290)
Complete name : ...\A Knight in York.mkv
Format : Matroska
Format version : Version 2
File size : 1.34 GiB
Duration : 1h 35mn
Overall bit rate : 2 005 Kbps
Encoded date : UTC 2012-09-24 20:13:35
Writing application : mkvmerge v5.8.0 ('No Sleep / Pillow') built on Sep 2 2012 15:37:04
Writing library : libebml v1.2.3 + libmatroska v1.3.0
Video
ID : 2
Format : AVC
Format/Info : Advanced Video Codec
Format profile : [email protected]
Format settings, CABAC : Yes
Format settings, ReFrames : 13 frames
Codec ID : V_MPEG4/ISO/AVC
Duration : 1h 35mn
Width : 768 pixels
Height : 432 pixels
Display aspect ratio : 16:9
Frame rate : 24.000 fps
Color space : YUV
Chroma subsampling : 4:2:0
Bit depth : 8 bits
Scan type : Progressive
Writing library : x264 core 128 r2216 198a7ea
Encoding settings : cabac=1 / ref=13 / deblock=1:-3:-3 / analyse=0x3:0x133 / me=umh / subme=10 / psy=1 / psy_rd=1.00:0.15 / mixed_ref=1 / me_range=24 / chroma_me=1 / trellis=2 / 8x8dct=1 / cqm=0 / deadzone=21,11 / fast_pskip=1 / chroma_qp_offset=-3 / threads=3 / lookahead_threads=1 / sliced_threads=0 / nr=0 / decimate=1 / interlaced=0 / bluray_compat=0 / constrained_intra=0 / bframes=16 / b_pyramid=2 / b_adapt=2 / b_bias=0 / direct=3 / weightb=1 / open_gop=0 / weightp=2 / keyint=240 / keyint_min=24 / scenecut=40 / intra_refresh=0 / rc_lookahead=60 / rc=crf / mbtree=1 / crf=17.0 / qcomp=0.60 / qpmin=0 / qpmax=69 / qpstep=4 / vbv_maxrate=7500 / vbv_bufsize=7500 / crf_max=0.0 / nal_hrd=none / ip_ratio=1.40 / aq=1:1.00
Language : English
Default : Yes
Forced : No
Color primaries : BT.709-5, BT.1361, IEC 61966-2-4, SMPTE RP177
Transfer characteristics : BT.709-5, BT.1361
Matrix coefficients : BT.709-5, BT.1361, IEC 61966-2-4 709, SMPTE RP177
Audio
ID : 1
Format : AAC
Format/Info : Advanced Audio Codec
Format profile : LC
Codec ID : A_AAC
Duration : 1h 35mn
Channel(s) : 2 channels
Channel positions : Front: L R
Sampling rate : 48.0 KHz
Compression mode : Lossy
Delay relative to video : 20ms
Title : AAC 2.0 198 kbps
Language : English
Default : Yes
Forced : No
Menu
00:00:00.000 : en:Locked within the Crystal Ball
00:09:10.250 : en:Guilded Cage
00:13:36.500 : en:The Circle
00:21:19.250 : en:Journeyman
00:35:16.958 : en:World of Stone
00:43:10.625 : en:The Peasant's Promise
00:49:00.000 : en:Toast to Tomorrow
00:54:29.625 : en:Fires at Midnight
01:04:37.000 : en:Barbara Allen
01:10:16.875 : en:Darkness
01:13:55.792 : en:Dance of the Darkness
01:18:19.167 : en:Dandelion Wine
01:25:20.042 : en:All the Fun Of the Fayre
01:29:38.250 : en:First of May
General
Unique ID : 253828395701743368856134218968553351717 (0xBEF5922010B0607687D738A6E21DEA25)
Complete name : ...\Bonus\Slideshow - A Day in York.mkv
Format : Matroska
Format version : Version 2
File size : 42.2 MiB
Duration : 2mn 50s
Overall bit rate : 2 073 Kbps
Encoded date : UTC 2012-09-23 17:10:10
Writing application : mkvmerge v5.8.0 ('No Sleep / Pillow') built on Sep 2 2012 15:37:04
Writing library : libebml v1.2.3 + libmatroska v1.3.0
Video
ID : 1
Format : AVC
Format/Info : Advanced Video Codec
Format profile : [email protected]
Format settings, CABAC : Yes
Format settings, ReFrames : 13 frames
Codec ID : V_MPEG4/ISO/AVC
Duration : 2mn 50s
Bit rate : 1 840 Kbps
Width : 768 pixels
Height : 432 pixels
Display aspect ratio : 16:9
Frame rate : 24.000 fps
Color space : YUV
Chroma subsampling : 4:2:0
Bit depth : 8 bits
Scan type : Progressive
Bits/(Pixel*Frame) : 0.231
Stream size : 37.4 MiB (89%)
Writing library : x264 core 128 r2216 198a7ea
Encoding settings : cabac=1 / ref=13 / deblock=1:-3:-3 / analyse=0x3:0x133 / me=umh / subme=10 / psy=1 / psy_rd=1.00:0.15 / mixed_ref=1 / me_range=24 / chroma_me=1 / trellis=2 / 8x8dct=1 / cqm=0 / deadzone=21,11 / fast_pskip=1 / chroma_qp_offset=-3 / threads=3 / lookahead_threads=1 / sliced_threads=0 / nr=0 / decimate=1 / interlaced=0 / bluray_compat=0 / constrained_intra=0 / bframes=16 / b_pyramid=2 / b_adapt=2 / b_bias=0 / direct=3 / weightb=1 / open_gop=0 / weightp=2 / keyint=240 / keyint_min=24 / scenecut=40 / intra_refresh=0 / rc_lookahead=60 / rc=crf / mbtree=1 / crf=17.0 / qcomp=0.60 / qpmin=0 / qpmax=69 / qpstep=4 / vbv_maxrate=7500 / vbv_bufsize=7500 / crf_max=0.0 / nal_hrd=none / ip_ratio=1.40 / aq=1:1.00
Language : English
Default : Yes
Forced : No
Color primaries : BT.709-5, BT.1361, IEC 61966-2-4, SMPTE RP177
Transfer characteristics : BT.709-5, BT.1361
Matrix coefficients : BT.709-5, BT.1361, IEC 61966-2-4 709, SMPTE RP177
Audio
ID : 2
Format : AC-3
Format/Info : Audio Coding 3
Mode extension : CM (complete main)
Format settings, Endianness : Big
Codec ID : A_AC3
Duration : 2mn 50s
Bit rate mode : Constant
Bit rate : 192 Kbps
Channel(s) : 2 channels
Channel positions : Front: L R
Sampling rate : 48.0 KHz
Bit depth : 16 bits
Compression mode : Lossy
Stream size : 3.90 MiB (9%)
Title : AC3 2.0 192 kbps
Language : English
Default : Yes
Forced : No



Вернуться к началу
 Профиль Отправить личное сообщение  
 
   Похожие торренты   Автор   Торрент   Размер 
В этой теме нет новых непрочитанных сообщений. [CherryPimps.com / WildOnCam.com] Daya Knight - Voluptuous and Wild Daya Knight LIVE! [June 26, 2018 г., All Sex, Ebony, 720p]

salma3

0 | 0

1.56 ГБ

В этой теме нет новых непрочитанных сообщений. Закон ночи / Live by Night [драма, криминал, 2016] BDRip, Dub+Sub [Лицензия]

salma3

337 | 163

2.18 ГБ

В этой теме нет новых непрочитанных сообщений. Закон ночи / Live by Night [драма, криминал, 2016] BDRip, Dub [iTunes]

salma3

1145 | 249

1.46 ГБ

В этой теме нет новых непрочитанных сообщений. Закон ночи / Live by Night [Драма, криминал, 2016] BDRip 1080p, Dub+Sub [Лицензия]

salma3

38 | 17

15.11 ГБ

В этой теме нет новых непрочитанных сообщений. Закон ночи / Live by Night [Драма, криминал, 2016] BDRip 720p, Dub+Sub [iTunes]

salma3

476 | 544

5.66 ГБ

В этой теме нет новых непрочитанных сообщений. Американский футбол. NFL 2017-18. Preseason. New York Jets @ New York Giants [26.08] (2017) WEB-DL 720р

salma3

17 | 8

2.37 ГБ

В этой теме нет новых непрочитанных сообщений. Wendi Knight (40) (Wendy Knight) Pack [Anal, Facial, DP, Busty, Big Tits, MILF]

salma3

5 | 1

6.17 ГБ


Начать новую тему Ответить на тему  [ 1 сообщение ] 




Для Мосгорсуда, Роскомнадзора и рекламодателей:: mosgorsud-torrent[собачка]yandex.ru
cron