Торрент файл
скачать торрент магнет ссылка Добавлен: 28 окт 2012, 09:10
Размер: 6.55 ГБ
Сидеров: 19
Личеров: 6
Статус: (Aleksandr.ru)
Автор

СообщениеДобавлено: 28 окт 2012, 09:10 

Не в сети
Супермодератор
Аватара пользователя
Дата регистрации:
22 май 2010, 12:40
Спасибо: 2165 / 101
Сообщения: 2958
Откуда: Н.Новгород
Blackmore's Night - A Knight In York
Год выпуска: 2012
Жанр: Medieval Folk Rock
Продолжительность: 1:35:21
Качество: BDRip 1080p
Контейнер: IMKV
Видео кодек: MPEG-4 AVC
Аудио кодек: DTS
Видео: 1920x1080 / 16:9 / 24,00 fps / ~8330 Kbps
Аудио: English DTS 5.1 / 48 kHz / 1510 kbps / 24 bits
Дополнительно:
http://www.amazon.de/Blackmores-Night-Knight-York-B...ay/dp/B0085G6O24
Трэклист:
01 Locked Within The Crystal Ball
02 Guilded Cage
03 The Circle
04 Journeyman
05 World Of Stone
06 The Peasant's Promise
07 Toast To Tomorrow
08 Fire's At Midnight
09 Barbara Allen
10 Darkness
11 Dance Of The Darkness
12 Dandelion Wine
13 All The Fun Of The Fayre
14 First Of May
Обложка (задняя часть)
Mediainfo
Код:
Код:
General
Unique ID                        : 184052751894333296463304889548099563022 (0x8A7745477C090A7AAB9DB4A93E102E0E)
Complete name                    : C:\Blackmore's Night - A Knight In York - 1080p.mkv.mkv
Format                           : Matroska
Format version                   : Version 2
File size                        : 6.55 GiB
Duration                         : 1h 35mn
Overall bit rate                 : 9 834 Kbps
Encoded date                     : UTC 2012-08-07 19:37:01
Writing application              : mkvmerge v5.7.0 ('The Whirlwind') built on Jul  8 2012 20:08:51
Writing library                  : libebml v1.2.3 + libmatroska v1.3.0
Video
ID                               : 1
Format                           : AVC
Format/Info                      : Advanced Video Codec
Format profile                   : [email protected]
Format settings, CABAC           : Yes
Format settings, ReFrames        : 4 frames
Format settings, GOP             : M=4, N=44
Codec ID                         : V_MPEG4/ISO/AVC
Duration                         : 1h 35mn
Bit rate                         : 8 330 Kbps
Width                            : 1 920 pixels
Height                           : 1 080 pixels
Display aspect ratio             : 16:9
Frame rate                       : 24.000 fps
Color space                      : YUV
Chroma subsampling               : 4:2:0
Bit depth                        : 8 bits
Scan type                        : Progressive
Bits/(Pixel*Frame)               : 0.167
Stream size                      : 5.41 GiB (83%)
Writing library                  : x264 core 125 r2208 d9d2288
Encoding settings                : cabac=1 / ref=4 / deblock=1:0:0 / analyse=0x3:0x133 / me=umh / subme=8 / psy=1 / psy_rd=1.00:0.00 / mixed_ref=1 / me_range=16 / chroma_me=1 / trellis=1 / 8x8dct=1 / cqm=0 / deadzone=21,11 / fast_pskip=0 / chroma_qp_offset=-2 / threads=18 / lookahead_threads=3 / sliced_threads=0 / nr=0 / decimate=1 / interlaced=0 / bluray_compat=0 / constrained_intra=0 / bframes=3 / b_pyramid=2 / b_adapt=1 / b_bias=0 / direct=1 / weightb=1 / open_gop=0 / weightp=2 / keyint=250 / keyint_min=24 / scenecut=40 / intra_refresh=0 / rc_lookahead=40 / rc=2pass / mbtree=1 / bitrate=8330 / ratetol=1.0 / qcomp=0.60 / qpmin=0 / qpmax=69 / qpstep=4 / cplxblur=20.0 / qblur=0.5 / ip_ratio=1.40 / aq=1:1.00
Language                         : English
Audio
ID                               : 2
Format                           : DTS
Format/Info                      : Digital Theater Systems
Muxing mode                      : Header stripping
Codec ID                         : A_DTS
Duration                         : 1h 35mn
Bit rate mode                    : Constant
Bit rate                         : 1 510 Kbps
Channel(s)                       : 6 channels
Channel positions                : Front: L C R, Side: L R, LFE
Sampling rate                    : 48.0 KHz
Bit depth                        : 24 bits
Compression mode                 : Lossy
Stream size                      : 1.01 GiB (15%)

Скриншоты



Вернуться к началу
 Профиль Отправить личное сообщение  
 
   Похожие торренты   Автор   Торрент   Размер 
В этой теме нет новых непрочитанных сообщений. Колосс Нью-Йорка / The Colossus of New York (1958) BDRip 1080p | L1

salma3

0 | 1

5.56 ГБ

В этой теме нет новых непрочитанных сообщений. Побег из Нью-Йорка / Escape from New York [Боевик, фантастика, 1981] BDRip 1080p, Mvo

salma3

32 | 30

9.92 ГБ

В этой теме нет новых непрочитанных сообщений. Первый рыцарь / First Knight [боевик, исторический, триллер, 1995] BDRip-HEVC 1080p, Dub

salma3

6 | 3

6.1 ГБ

В этой теме нет новых непрочитанных сообщений. Первый рыцарь / First Knight [Боевик, триллер, мелодрама, приключения, 1995] BDRip 1080p, Dub+4Mvo+Dvo+Avo+Sub

salma3

17 | 41

16.02 ГБ

В этой теме нет новых непрочитанных сообщений. Темный рыцарь: Возрождение легенды / The Dark Knight Rises [фантастика, боевик, триллер, 2012] Blu-ray EUR 1080p, Dub [IMAX] [Лицензия]

salma3

15 | 10

40.16 ГБ

В этой теме нет новых непрочитанных сообщений. [WeFuckBlackGirls.com / DogfartNetwork.com] Daya Knight (Daya Knight's Second Appearance / 05.02.2018) [2018 г., Big Tits, Braces, Ebony, GangBang, Cowgirl, Doggystyle, Shaved, IR, Facial, Anal, 1080p]

salma3

38 | 13

2.23 ГБ

В этой теме нет новых непрочитанных сообщений. Трансформеры: Последний рыцарь / Transformers: The Last Knight [фантастика, боевик, триллер, 2017] BDRip 1080p, Dub+Sub [Лицензия]

salma3

61 | 22

17.59 ГБ


Начать новую тему Ответить на тему  [ 1 сообщение ] 




Для Мосгорсуда, Роскомнадзора и рекламодателей:: mosgorsud-torrent[собачка]yandex.ru
cron