Торрент файл
скачать торрент магнет ссылка Добавлен: 28 окт 2012, 09:05
Размер: 6.12 ГБ
Сидеров: 3
Личеров: 1
Статус: (Aleksandr.ru)
Автор

СообщениеДобавлено: 28 окт 2012, 09:05 

Не в сети
Супермодератор
Аватара пользователя
Дата регистрации:
22 май 2010, 12:40
Спасибо: 2165 / 101
Сообщения: 2958
Откуда: Н.Новгород
Blackmore's Night - A Knight in York (Live)
Жанр: Medieval Folk Rock
Продолжительность: 1:35:15 + бонус
Год выпуска: 2012
Описание: Blackmore’s Night - A Knight In York был снят и записан во время тура по Великобритании в York Grand Opera House 30 сентября 2011 года. Он охватывает все волшебство потрясающего шоу Candice, Ritchie & Co.
Треклист:
01 Locked Within The Crystal Ball
02 Guilded Cage
03 The Circle
04 Journeyman
05 World Of Stone
06 The Peasant's Promise
07 Toast To Tomorrow
08 Fire's At Midnight
09 Barbara Allen
10 Darkness
11 Dance Of The Darkness
12 Dandelion Wine
13 All The Fun Of The Fayre
14 First Of May
+ виды под музыку A Day in York (0:02:51)
Качество: BDRip 720p (источник)
Контейнер: MKV
Видео кодек: H.264
Аудио кодек: FLAC, DTS
Видео: x264, 1280x720, 5897 kbps, 24 fps
Аудио: FLAC, 2.0, 1648 kbps, 48 kHz, 24 bit
Аудио 2: DTS, 5.1, 1510 kbps, 48 kHz
Главы: подписаны
A Day in York
Видео: x264, 1280x720, 4393 kbps, 24 fps
Аудио: AC3, 2.0, 192 kbps, 48 kHz
Скриншоты
Подробные технические данные
Обработка в AVISynth:
DGDecode_MPEG2Source("Video.d2v", CPU=4) # прибиваем блочность
Dither_convert_8_to_16()
Dither_resize16(1280,720) # четкости на 720p
DitherPost() # дизеринг вместо округления
Настройки x264:
--level 4 --preset veryslow --tune film --crf 17 --deblock -3:-3 --bframes 16
--vbv-bufsize 25000 --vbv-maxrate 25000 --qpfile "chapters.txt"
--colorprim bt709 --transfer bt709 --colormatrix bt709
Из логов:
Концерт:
x264 [info]: frame I:774 Avg QP:12.78 size:114977 [средний GOP ~ 177]
x264 [info]: frame P:26465 Avg QP:15.92 size: 56196 [число B/P ~ 4,2]
x264 [info]: frame B:109910 Avg QP:17.99 size: 23985
x264 [info]: consecutive B-frames: 0.8% 0.6% 2.8% 17.0% 20.8% 51.8% 3.8% 0.5% 0.7% 0.2% 0.2% 0.5% 0.1% 0.0% 0.0% 0.0% 0.1%
x264 [info]: ref P L0: 39.1% 5.3% 18.8% 9.8% 7.7% 6.2% 5.3% 3.7% 3.5% [9] 0.5% 0.0%
x264 [info]: kb/s:5897.04
Слайд-шоу:
x264 [info]: frame I:18 Avg QP:14.18 size:160989 [средний GOP ~ 228]
x264 [info]: frame P:1063 Avg QP:17.38 size: 58393 [число B/P ~ 2,8]
x264 [info]: frame B:3013 Avg QP:20.55 size: 9526
x264 [info]: consecutive B-frames: 5.7% 5.0% 10.6% 27.9% 12.1% 22.0% 3.4% 2.0% 1.8% 0.7% 0.5% 0.9% 0.0% 1.0% 0.7% 2.3% 3.3%
x264 [info]: ref P L0: 55.5% 18.1% 14.1% 3.5% 2.8% 1.9% 1.7% 1.0% 1.0% [9] 0.3% 0.0%
x264 [info]: kb/s:4393.02
Звук:
2.0 - из PCM 24 bit в FLAC
5.1 - копия DTS 1510 kbps
в слайд-шоу - копия AC3 2.0 192 kbps
MediaInfo:
General
Unique ID : 231143573840330184564508849562159787215 (0xADE4A20E54CC4E38B0C70F81E9F5ACCF)
Complete name : ...\A Knight in York.mkv
Format : Matroska
Format version : Version 2
File size : 6.03 GiB
Duration : 1h 35mn
Overall bit rate mode : Variable
Overall bit rate : 9 048 Kbps
Encoded date : UTC 2012-09-23 16:29:44
Writing application : mkvmerge v5.8.0 ('No Sleep / Pillow') built on Sep 2 2012 15:37:04
Writing library : libebml v1.2.3 + libmatroska v1.3.0
Video
ID : 1
Format : AVC
Format/Info : Advanced Video Codec
Format profile : [email protected]
Format settings, CABAC : Yes
Format settings, ReFrames : 9 frames
Codec ID : V_MPEG4/ISO/AVC
Duration : 1h 35mn
Width : 1 280 pixels
Height : 720 pixels
Display aspect ratio : 16:9
Frame rate : 24.000 fps
Color space : YUV
Chroma subsampling : 4:2:0
Bit depth : 8 bits
Scan type : Progressive
Writing library : x264 core 128 r2216 198a7ea
Encoding settings : cabac=1 / ref=9 / deblock=1:-3:-3 / analyse=0x3:0x133 / me=umh / subme=10 / psy=1 / psy_rd=1.00:0.15 / mixed_ref=1 / me_range=24 / chroma_me=1 / trellis=2 / 8x8dct=1 / cqm=0 / deadzone=21,11 / fast_pskip=1 / chroma_qp_offset=-3 / threads=3 / lookahead_threads=1 / sliced_threads=0 / nr=0 / decimate=1 / interlaced=0 / bluray_compat=0 / constrained_intra=0 / bframes=16 / b_pyramid=2 / b_adapt=2 / b_bias=0 / direct=3 / weightb=1 / open_gop=0 / weightp=2 / keyint=240 / keyint_min=24 / scenecut=40 / intra_refresh=0 / rc_lookahead=60 / rc=crf / mbtree=1 / crf=17.0 / qcomp=0.60 / qpmin=0 / qpmax=69 / qpstep=4 / vbv_maxrate=25000 / vbv_bufsize=25000 / crf_max=0.0 / nal_hrd=none / ip_ratio=1.40 / aq=1:1.00
Language : English
Default : Yes
Forced : No
Color primaries : BT.709-5, BT.1361, IEC 61966-2-4, SMPTE RP177
Transfer characteristics : BT.709-5, BT.1361
Matrix coefficients : BT.709-5, BT.1361, IEC 61966-2-4 709, SMPTE RP177
Audio #1
ID : 2
Format : FLAC
Format/Info : Free Lossless Audio Codec
Codec ID : A_FLAC
Duration : 1h 35mn
Bit rate mode : Variable
Channel(s) : 2 channels
Sampling rate : 48.0 KHz
Bit depth : 24 bits
Title : FLAC 2.0 1648 kbps
Writing library : libFLAC 1.2.1 (UTC 2007-09-17)
Language : English
Default : Yes
Forced : No
Audio #2
ID : 3
Format : DTS
Format/Info : Digital Theater Systems
Codec ID : A_DTS
Duration : 1h 35mn
Bit rate mode : Constant
Bit rate : 1 510 Kbps
Channel(s) : 6 channels
Channel positions : Front: L C R, Side: L R, LFE
Sampling rate : 48.0 KHz
Bit depth : 24 bits
Compression mode : Lossy
Stream size : 1.01 GiB (17%)
Title : DTS 5.1 1510 kbps
Language : English
Default : No
Forced : No
Menu
00:00:00.000 : en:Locked within the Crystal Ball
00:09:10.250 : en:Guilded Cage
00:13:36.500 : en:The Circle
00:21:19.250 : en:Journeyman
00:35:16.958 : en:World of Stone
00:43:10.625 : en:The Peasant's Promise
00:49:00.000 : en:Toast to Tomorrow
00:54:29.625 : en:Fires at Midnight
01:04:37.000 : en:Barbara Allen
01:10:16.875 : en:Darkness
01:13:55.792 : en:Dance of the Darkness
01:18:19.167 : en:Dandelion Wine
01:25:20.042 : en:All the Fun Of the Fayre
01:29:38.250 : en:First of May
General
Unique ID : 172177092322880267183414768069591406758 (0x81881A0E87C74C4CAC627376B58798A6)
Complete name : ...\Bonus\Slideshow - A Day in York.mkv
Format : Matroska
Format version : Version 2
File size : 93.3 MiB
Duration : 2mn 50s
Overall bit rate : 4 587 Kbps
Encoded date : UTC 2012-09-21 07:48:17
Writing application : mkvmerge v5.8.0 ('No Sleep / Pillow') built on Sep 2 2012 15:37:04
Writing library : libebml v1.2.3 + libmatroska v1.3.0
Video
ID : 1
Format : AVC
Format/Info : Advanced Video Codec
Format profile : [email protected]
Format settings, CABAC : Yes
Format settings, ReFrames : 9 frames
Codec ID : V_MPEG4/ISO/AVC
Duration : 2mn 50s
Bit rate : 4 304 Kbps
Width : 1 280 pixels
Height : 720 pixels
Display aspect ratio : 16:9
Frame rate : 24.000 fps
Color space : YUV
Chroma subsampling : 4:2:0
Bit depth : 8 bits
Scan type : Progressive
Bits/(Pixel*Frame) : 0.195
Stream size : 87.5 MiB (94%)
Writing library : x264 core 128 r2216 198a7ea
Encoding settings : cabac=1 / ref=9 / deblock=1:-3:-3 / analyse=0x3:0x133 / me=umh / subme=10 / psy=1 / psy_rd=1.00:0.15 / mixed_ref=1 / me_range=24 / chroma_me=1 / trellis=2 / 8x8dct=1 / cqm=0 / deadzone=21,11 / fast_pskip=1 / chroma_qp_offset=-3 / threads=3 / lookahead_threads=1 / sliced_threads=0 / nr=0 / decimate=1 / interlaced=0 / bluray_compat=0 / constrained_intra=0 / bframes=16 / b_pyramid=2 / b_adapt=2 / b_bias=0 / direct=3 / weightb=1 / open_gop=0 / weightp=2 / keyint=240 / keyint_min=24 / scenecut=40 / intra_refresh=0 / rc_lookahead=60 / rc=crf / mbtree=1 / crf=17.0 / qcomp=0.60 / qpmin=0 / qpmax=69 / qpstep=4 / vbv_maxrate=25000 / vbv_bufsize=25000 / crf_max=0.0 / nal_hrd=none / ip_ratio=1.40 / aq=1:1.00
Language : English
Default : Yes
Forced : No
Color primaries : BT.709-5, BT.1361, IEC 61966-2-4, SMPTE RP177
Transfer characteristics : BT.709-5, BT.1361
Matrix coefficients : BT.709-5, BT.1361, IEC 61966-2-4 709, SMPTE RP177
Audio
ID : 2
Format : AC-3
Format/Info : Audio Coding 3
Mode extension : CM (complete main)
Format settings, Endianness : Big
Codec ID : A_AC3
Duration : 2mn 50s
Bit rate mode : Constant
Bit rate : 192 Kbps
Channel(s) : 2 channels
Channel positions : Front: L R
Sampling rate : 48.0 KHz
Bit depth : 16 bits
Compression mode : Lossy
Stream size : 3.90 MiB (4%)
Title : AC3 2.0 192 kbps
Language : English
Default : Yes
Forced : No



Вернуться к началу
 Профиль Отправить личное сообщение  
 
   Похожие торренты   Автор   Торрент   Размер 
В этой теме нет новых непрочитанных сообщений. [CherryPimps.com / WildOnCam.com] Daya Knight - Voluptuous and Wild Daya Knight LIVE! [June 26, 2018 г., All Sex, Ebony, 720p]

salma3

0 | 0

1.56 ГБ

В этой теме нет новых непрочитанных сообщений. Закон ночи / Live by Night [Драма, криминал, 2016] BDRip 720p, Dub+Sub [iTunes]

salma3

476 | 544

5.66 ГБ

В этой теме нет новых непрочитанных сообщений. Закон ночи / Live by Night [драма, криминал, 2016] BDRip, Dub+Sub [Лицензия]

salma3

337 | 163

2.18 ГБ

В этой теме нет новых непрочитанных сообщений. Закон ночи / Live by Night [драма, криминал, 2016] BDRip, Dub [iTunes]

salma3

1145 | 249

1.46 ГБ

В этой теме нет новых непрочитанных сообщений. Закон ночи / Live by Night [Драма, криминал, 2016] BDRip 1080p, Dub+Sub [Лицензия]

salma3

38 | 17

15.11 ГБ

В этой теме нет новых непрочитанных сообщений. Жандарм в Нью-Йорке / Le gendarme a New York [комедия, 1965] BDRip 720p, 5Mvo+Avo+Sub

salma3

1 | 1

4.36 ГБ

В этой теме нет новых непрочитанных сообщений. Субботним Вечером в Прямом Эфире / Saturday Night Live [42x01-03, 05-06, 08, 10] (комедия, пародия, музыка, 2016) WEBRip 720p | Sub

marya111

42 | 31

6.68 ГБ


Начать новую тему Ответить на тему  [ 1 сообщение ] 




Для Мосгорсуда, Роскомнадзора и рекламодателей:: mosgorsud-torrent[собачка]yandex.ru
cron