Торрент файл
скачать торрент магнет ссылка Добавлен: 23 май 2012, 21:38
Размер: 1.45 ГБ
Сидеров: 273
Личеров: 29
Статус: (Aleksandr.ru)
Автор

СообщениеДобавлено: 23 май 2012, 21:38 

Не в сети
Супермодератор
Аватара пользователя
Дата регистрации:
22 май 2010, 12:40
Спасибо: 2165 / 101
Сообщения: 2958
Откуда: Н.Новгород




Deep Purple
Machine Head - Live in Copenhagen



Формат: DVDRip, MKV, x264, OGG Vorbis, AAC
Жанр:Hard Rock
Продолжительность: 01:34:26
Год выпуска: 1972

Видео: 688x480 (4:3), 29,970 кадров/сек, AVC, x264 core 124 ~1597 kbps avg, 0.166 bit/pixel
Аудио#1: Оригинал: 48,0 КГц, Vorbis, 2 ch, ~225 kbps
Аудио#2: Ремастер: 48,0 КГц, Vorbis, 2 ch, ~262 kbps
Аудио#3: Комментарий: 48,0 КГц, AAC LC, 1 ch, ~51kbps

Доп. информация:

Концерт в Копенгагене, превосходно снятый местной телекомпанией.

Треклист:
1. Highway star
2. Strange kind of woman
3. Child in time
4. The mule
5. Lazy
6. Space truckin
7. Fireball
8. Lucille
9. Black night

Код:
Общее
Уникальный идентификатор: 181332243628076332634557125715735250545 (0x886B51DDAACF07C0B4E3ED03EECA8671)
Полное имя: S:КОНЦЕРТЫ & КЛИПЫDeep Purple - Machine Head Live in Copenhagen 1972.mkv
Формат: Matroska
Версия формата: Version 2
Размер файла: 1,45 Гбайт
Продолжительность: 1 ч. 37 м.
Режим общего битрейта: Переменный
Общий поток: 2140 Кбит/сек
Дата кодирования: UTC 2012-04-30 15:07:03
Программа кодирования: mkvmerge v5.3.0 ('I could have danced') built on Feb9 2012 10:38:07
Библиотека кодирования: libebml v1.2.3 + libmatroska v1.3.0

Видео
Идентификатор: 1
Формат: AVC
Формат/Информация: Advanced Video Codec
Профиль формата: [email protected]
Параметр CABAC формата: Да
Параметр ReFrames формата: 11 кадров
Идентификатор кодека: V_MPEG4/ISO/AVC
Продолжительность: 1 ч. 37 м.
Номинальный битрейт: 1645 Кбит/сек
Ширина: 688 пикселей
Высота: 480 пикселей
Соотношение сторон: 4:3
Соотношение сторон в оригинале: 1,433
Частота кадров: 29,970 кадров/сек
Цветовое пространство: YUV
Субдискретизация насыщенности: 4:2:0
Битовая глубина: 8 бит
Тип развёртки: Прогрессивная
Бит/(Пиксели*Кадры): 0.166
Заголовок: x264, 688x480 @ 4:3, 29.970 fps, 1645kbps /Video=)
Библиотека кодирования: x264 core 124 r2197 69a0443
Настройки программы: cabac=1 / ref=11 / deblock=1:-2:-1 / analyse=0x3:0x133 / me=umh / subme=9 / psy=1 / psy_rd=1.00:0.15 / mixed_ref=1 / me_range=24 / chroma_me=1 / trellis=2 / 8x8dct=1 / cqm=0 / deadzone=21,11 / fast_pskip=1 / chroma_qp_offset=-3 / threads=6 / sliced_threads=0 / nr=0 / decimate=1 / interlaced=0 / bluray_compat=0 / constrained_intra=0 / bframes=9 / b_pyramid=2 / b_adapt=2 / b_bias=0 / direct=3 / weightb=1 / open_gop=0 / weightp=2 / keyint=300 / keyint_min=29 / scenecut=40 / intra_refresh=0 / rc_lookahead=60 / rc=2pass / mbtree=1 / bitrate=1645 / ratetol=1.0 / qcomp=0.60 / qpmin=0 / qpmax=69 / qpstep=4 / cplxblur=20.0 / qblur=0.5 / ip_ratio=1.40 / aq=1:1.00
Default: Да
Forced: Нет

Аудио #1
Идентификатор: 2
Формат: Vorbis
Параметр Floor формата: 1
Идентификатор кодека: A_VORBIS
Продолжительность: 1 ч. 37 м.
Вид битрейта: Переменный
Битрейт: 320 Кбит/сек
Каналы: 2 канала
Частота: 48,0 КГц
Метод сжатия: С потерями
Задержка видео: 100 мс.
Размер потока: 223 Мбайт (15%)
Заголовок: Ogg Vorbis, 2ch, 48KHz, 235kbps (q=0.9) /Original
Библиотека кодирования: aoTuV 20110424 (UTC 2011-04-24)
Default: Да
Forced: Нет

Аудио #2
Идентификатор: 3
Формат: Vorbis
Параметр Floor формата: 1
Идентификатор кодека: A_VORBIS
Продолжительность: 1 ч. 37 м.
Вид битрейта: Переменный
Битрейт: 320 Кбит/сек
Каналы: 2 канала
Частота: 48,0 КГц
Метод сжатия: С потерями
Задержка видео: 100 мс.
Размер потока: 223 Мбайт (15%)
Заголовок: Ogg Vorbis, 2ch, 48KHz, 274kbps (q=0.9) /Remaster
Библиотека кодирования: aoTuV 20110424 (UTC 2011-04-24)
Default: Нет
Forced: Нет

Аудио #3
Идентификатор: 4
Формат: AAC
Формат/Информация: Advanced Audio Codec
Профиль формата: LC
Идентификатор кодека: A_AAC
Продолжительность: 1 ч. 37 м.
Каналы: 1 канал
Расположение каналов: Front: C
Частота: 48,0 КГц
Метод сжатия: С потерями
Задержка видео: 9 мс.
Заголовок: aac, 1ch, 48KHz, 50kbps, /Commentary
Default: Нет
Forced: Нет

















Источник рипа: NTSC DVD от Vap INC



Вернуться к началу
 Профиль Отправить личное сообщение  
 
   Похожие торренты   Автор   Торрент   Размер 
В этой теме нет новых непрочитанных сообщений. Whitesnake - The Purple Album [Japanese Edition] [2015, Hard Rock, Classic Rock, MP3]

salma3

5 | 0

175.45 МБ

В этой теме нет новых непрочитанных сообщений. [WildOnCam.com / CherryPimps.com] Lauren Phillips, Lexi Belle (Can't Get Enough Of You LIVE / 23.11.2017) [Blonde, Feet, Hardcore, Lesbian, Lingerie, Live Show Archives, Panties, Real Tits, Red Head, Stockings, Tattoos]

salma3

8 | 2

467.78 МБ

В этой теме нет новых непрочитанных сообщений. CherryPimps 17 03 06 Mia Malkova Ravishing In Deep Purple XXX 1080p MP4-KTR

salma3

0 | 0

1.09 ГБ

В этой теме нет новых непрочитанных сообщений. [CherryPimps.com / WildOnCam.com] Amber Ivy - Its Getting Hot In Here LIVE (27.11.2017) [2017 г., Big Ass, Big Tits, Blowjob, Cow Girl, Doggy Style, Hardcore, Lingerie, Live Show Archives, Panties, Real Tits, Red Head, Reverse Cow Girl, Sto

salma3

29 | 9

485.08 МБ

В этой теме нет новых непрочитанных сообщений. [CherryPimps.com / WildOnCam.com] Tana Lea - Fucking Hot Tana Lea LIVE (06.12.2017) (05.12.2017) [2017 г., Big Tits, Blowjob, Cow Girl, Doggy Style, Facials, Fake Tits, Feet, Hardcore, Lingerie, Live Show Archives, Panties, Red Head, Shaved

salma3

11 | 3

482.28 МБ

В этой теме нет новых непрочитанных сообщений. [Blacked.com] Nicole Aniston - Work Hard, Play Hard (25.05.2017) [Creampie, Big ass, Big tits, Doggystyle, First interracial, Riding, Blonde, Deep throat, IR]

salma3

38 | 13

275.23 МБ

В этой теме нет новых непрочитанных сообщений. [Blacked.com] Nicole Aniston - Work Hard, Play Hard (25.05.2017) [Creampie, Big ass, Big tits, Doggystyle, First interracial, Riding, Blonde, Deep throat, IR]

salma3

33 | 11

533.81 МБ


Начать новую тему Ответить на тему  [ 1 сообщение ] 




Для Мосгорсуда, Роскомнадзора и рекламодателей:: mosgorsud-torrent[собачка]yandex.ru
cron