Торрент файл
скачать торрент магнет ссылка Добавлен: 27 фев 2012, 20:59
Размер: 7.76 ГБ
Сидеров: 8
Личеров: 8
Статус: (Aleksandr.ru)
Автор

СообщениеДобавлено: 27 фев 2012, 20:59 

Не в сети
Супермодератор
Аватара пользователя
Дата регистрации:
22 май 2010, 12:40
Спасибо: 2165 / 101
Сообщения: 2958
Откуда: Н.Новгород

































Страна: Россия
Жанр:Sentimental rock
Год выпуска: 2006

Качество: DVD-5
Видео: PAL 4:3 (720x576) VBR
Аудио: Not specified (LinearPCM, 2 ch)
Продолжительность: Часть 1 - 1:15:40 Часть 2 - 1:05:44
Описание
Диски из серии ВидеоАНАТОЛОГИЯ Барды России (вып. 2 и вып. 3)
Видеозапись с концерта в бард-кафе "ГНЕЗДО ГЛУХАРЯ" 18 декабря 2006г. производилась студией NP-VIDEO по заказу телекомпании РЕГИОНЫ РОССИИ.

Продюсер съемки и издания проекта: "ВидеоАнатология БАРДЫ РОССИИ" Виктор Зайцев (NP)

Группа БЕЛАЯ ГВАРДИЯ в составе:
ЗОЯ ЯЩЕНКО - вокал, гитара, перкуссия
ДМИТРИЙ БАУЛИН - вокал, гитара, примочки
ПАВЕЛ ЕРОХИН - флейта
ПАВЕЛ ФИЛЬЧЕНКО - скрипка


Трэклист:
1. Свидание (сл. и муз. Зоя Ященко)
2. Наизнанку (сл. и муз. Зоя Ященко)
3. Ах, Боже мой... (сл. и муз. Зоя Ященко)
4. Демон (сл. и муз. Зоя Ященко)
5. Сто лет одиночества (сл. и муз. Зоя Ященко)
6. Кофейни (сл. и муз. Зоя Ященко)
7. Сердце мое (сл. Зоя Ященко, муз. Дмитрий Баулин)
8. Амулет (сл. и муз. Зоя Ященко)
9. Рождество (сл. и муз. Зоя Ященко)
10. Плясовая (сл. и муз. Зоя Ященко)
11. Бенгальский залив (сл. и муз. Зоя Ященко)
12. Тонкие миры (сл. и муз. Зоя Ященко)

1. Я с тобой... (сл. и муз. Дмитрий Баулин)
2. У пяти прудов (сл. Зоя Ященко, муз. Дмитрий Баулин)
3. Причины (сл. и муз. Дмитрий Баулин)
4. Гардероб (сл. и муз. Дмитрий Баулин)
5. Питер (сл. и муз. Зоя Ященко)
6. Песня рядового (сл. Зоя Ященко, муз. Зоя Ященко, Дмитрий Баулин)
7. Комната (сл. и муз. Зоя Ященко)
8. Зной (сл. и муз. Зоя Ященко)
9. Вишневое варенье (сл. и муз. Зоя Ященко)
10. Сад (сл. и муз. Зоя Ященко)
11. Германия (сл. и муз. Зоя Ященко)
12. Белая гвардия (сл. и муз. Зоя Ященко)
13. Глаза цвета кофе (сл. Зоя Ященко, муз. Дмитрий Баулин)

Анаморф 4:3. Скриншоты сняты в реальном разрешении воспроизводимом в проигрывателе, т.е. 768*576
























Код:
Общее
Полное имя: Q:КОНЦЕРТЫ & КЛИПЫЗоя Ященко и группа Белая Гвардия (предновогодний концерт) 2006 гДиск 1VIDEO_TS.BUP
Формат: DVD Video
Профиль формата: Menu
Размер файла: 12,0 Кбайт
Режим общего битрейта: Переменный

Видео
Идентификатор: 224 (0xE0)
Формат: MPEG Video
Версия формата: Version 2
Вид битрейта: Переменный
Ширина: 720 пикселей
Высота: 576 пикселей
Соотношение сторон: 4:3
Частота кадров: 25,000 кадров/сек
Стандарт вещания: PAL
Метод сжатия: С потерями

Аудио
Формат: PCM
Каналы: 2 канала
Частота: 48,0 КГц

Общее
Полное имя: Q:КОНЦЕРТЫ & КЛИПЫЗоя Ященко и группа Белая Гвардия (предновогодний концерт) 2006 гДиск 1VIDEO_TS.IFO
Формат: DVD Video
Профиль формата: Menu
Размер файла: 12,0 Кбайт
Режим общего битрейта: Переменный

Видео
Идентификатор: 224 (0xE0)
Формат: MPEG Video
Версия формата: Version 2
Вид битрейта: Переменный
Ширина: 720 пикселей
Высота: 576 пикселей
Соотношение сторон: 4:3
Частота кадров: 25,000 кадров/сек
Стандарт вещания: PAL
Метод сжатия: С потерями

Аудио
Формат: PCM
Каналы: 2 канала
Частота: 48,0 КГц

Общее
Полное имя: Q:КОНЦЕРТЫ & КЛИПЫЗоя Ященко и группа Белая Гвардия (предновогодний концерт) 2006 гДиск 1VIDEO_TS.VOB
Формат: MPEG-PS
Размер файла: 44,0 Кбайт
Продолжительность: 158 мс.
Общий поток: 2281 Кбит/сек

Видео
Идентификатор: 224 (0xE0)
Формат: MPEG Video
Версия формата: Version 2
Профиль формата: [email protected]
Параметр BVOP формата: Нет
Параметр матрицы формата: Выборочная
Продолжительность: 40 мс.
Максимальный битрейт: 8000 Кбит/сек
Ширина: 720 пикселей
Высота: 576 пикселей
Соотношение сторон: 4:3
Частота кадров: 25,000 кадров/сек
Стандарт вещания: PAL
Цветовое пространство: YUV
Субдискретизация насыщенности: 4:2:0
Битовая глубина: 8 бит
Тип развёртки: Прогрессивная
Порядок развёртки: Нижнее поле первое
Метод сжатия: С потерями
Основные цвета: SMPTE 170M
Характеристики трансфера: SMPTE 170M
Коэффициенты матрицы: SMPTE 170M

Аудио
Идентификатор: 189 (0xBD)-160 (0xA0)
Формат: PCM
Параметр Endianness формата: Big
Параметр Sign формата: Signed
Режим смешивания: DVD-Video
Продолжительность: 158 мс.
Вид битрейта: Постоянный
Битрейт: 1536 Кбит/сек
Каналы: 2 канала
Расположение каналов: Front: L R
Частота: 48,0 КГц
Битовая глубина: 16 бит
Размер потока: 29,6 Кбайт (67%)

Меню

Общее
Полное имя: Q:КОНЦЕРТЫ & КЛИПЫЗоя Ященко и группа Белая Гвардия (предновогодний концерт) 2006 гДиск 1VTS_01_0.BUP
Формат: DVD Video
Профиль формата: Program
Размер файла: 54,0 Кбайт
Продолжительность: 1 ч. 15 м.
Режим общего битрейта: Переменный
Общий поток: 97 бит/сек

Видео
Идентификатор: 224 (0xE0)
Формат: MPEG Video
Версия формата: Version 2
Продолжительность: 1 ч. 15 м.
Вид битрейта: Переменный
Ширина: 720 пикселей
Высота: 576 пикселей
Соотношение сторон: 4:3
Частота кадров: 25,000 кадров/сек
Стандарт вещания: PAL
Метод сжатия: С потерями

Аудио
Идентификатор: 0 (0x0)
Формат: PCM
Продолжительность: 1 ч. 15 м.
Каналы: 2 канала
Частота: 48,0 КГц

Меню
Продолжительность: 1 ч. 15 м.
00:00:00.000: Chapter 1
00:01:27.520: Chapter 2
00:06:57.640: Chapter 3
00:11:47.560: Chapter 4
00:14:33.720: Chapter 5
00:21:54.800: Chapter 6
00:27:56.080: Chapter 7
00:30:52.800: Chapter 8
00:35:02.880: Chapter 9
00:39:12.200: Chapter 10
00:42:32.840: Chapter 11
00:44:36.680: Chapter 12
00:48:29.720: Chapter 13
00:57:35.360: Chapter 14
00:59:11.320: Chapter 15
List (Audio): 0

Общее
Полное имя: Q:КОНЦЕРТЫ & КЛИПЫЗоя Ященко и группа Белая Гвардия (предновогодний концерт) 2006 гДиск 1VTS_01_0.IFO
Формат: DVD Video
Профиль формата: Program
Размер файла: 54,0 Кбайт
Продолжительность: 1 ч. 15 м.
Режим общего битрейта: Переменный
Общий поток: 97 бит/сек

Видео
Идентификатор: 224 (0xE0)
Формат: MPEG Video
Версия формата: Version 2
Продолжительность: 1 ч. 15 м.
Вид битрейта: Переменный
Ширина: 720 пикселей
Высота: 576 пикселей
Соотношение сторон: 4:3
Частота кадров: 25,000 кадров/сек
Стандарт вещания: PAL
Метод сжатия: С потерями

Аудио
Идентификатор: 0 (0x0)
Формат: PCM
Продолжительность: 1 ч. 15 м.
Каналы: 2 канала
Частота: 48,0 КГц

Меню
Продолжительность: 1 ч. 15 м.
00:00:00.000: Chapter 1
00:01:27.520: Chapter 2
00:06:57.640: Chapter 3
00:11:47.560: Chapter 4
00:14:33.720: Chapter 5
00:21:54.800: Chapter 6
00:27:56.080: Chapter 7
00:30:52.800: Chapter 8
00:35:02.880: Chapter 9
00:39:12.200: Chapter 10
00:42:32.840: Chapter 11
00:44:36.680: Chapter 12
00:48:29.720: Chapter 13
00:57:35.360: Chapter 14
00:59:11.320: Chapter 15
List (Audio): 0

Общее
Полное имя: Q:КОНЦЕРТЫ & КЛИПЫЗоя Ященко и группа Белая Гвардия (предновогодний концерт) 2006 гДиск 1VTS_01_0.VOB
Формат: MPEG-PS
Размер файла: 30,5 Мбайт
Продолжительность: 11 с.
Режим общего битрейта: Переменный
Общий поток: 22,0 Мбит/сек

Видео
Идентификатор: 224 (0xE0)
Формат: MPEG Video
Версия формата: Version 2
Профиль формата: [email protected]
Параметр BVOP формата: Да
Параметр матрицы формата: Выборочная
Параметр GOP формата: M=3, N=12
Продолжительность: 11 с.
Вид битрейта: Переменный
Битрейт: 20,0 Мбит/сек
Максимальный битрейт: 8000 Кбит/сек
Ширина: 720 пикселей
Высота: 576 пикселей
Соотношение сторон: 4:3
Частота кадров: 25,000 кадров/сек
Стандарт вещания: PAL
Цветовое пространство: YUV
Субдискретизация насыщенности: 4:2:0
Битовая глубина: 8 бит
Тип развёртки: Чересстрочная
Порядок развёртки: Верхнее поле первое
Метод сжатия: С потерями
Бит/(Пиксели*Кадры): 1.929
Размер потока: 27,5 Мбайт (90%)
Основные цвета: SMPTE 170M
Характеристики трансфера: SMPTE 170M
Коэффициенты матрицы: SMPTE 170M

Аудио
Идентификатор: 189 (0xBD)-160 (0xA0)
Формат: PCM
Параметр Endianness формата: Big
Параметр Sign формата: Signed
Режим смешивания: DVD-Video
Продолжительность: 11 с.
Вид битрейта: Постоянный
Битрейт: 1536 Кбит/сек
Каналы: 2 канала
Расположение каналов: Front: L R
Частота: 48,0 КГц
Битовая глубина: 16 бит
Задержка видео: 2 мс.
Размер потока: 2,13 Мбайт (7%)

Текст
Идентификатор: 189 (0xBD)-32 (0x20)
Формат: RLE
Формат/Информация: Run-length encoding
Режим смешивания: DVD-Video
Задержка видео: 40 мс.

Меню

Общее
Полное имя: Q:КОНЦЕРТЫ & КЛИПЫЗоя Ященко и группа Белая Гвардия (предновогодний концерт) 2006 гДиск 1VTS_01_1.VOB
Формат: MPEG-PS
Размер файла: 1024 Мбайт
Продолжительность: 19 м.
Режим общего битрейта: Переменный
Общий поток: 7346 Кбит/сек

Видео
Идентификатор: 224 (0xE0)
Формат: MPEG Video
Версия формата: Version 2
Профиль формата: [email protected]
Параметр BVOP формата: Да
Параметр матрицы формата: Выборочная
Параметр GOP формата: M=3, N=12
Продолжительность: 19 м.
Вид битрейта: Переменный
Битрейт: 5663 Кбит/сек
Максимальный битрейт: 8000 Кбит/сек
Ширина: 720 пикселей
Высота: 576 пикселей
Соотношение сторон: 4:3
Частота кадров: 25,000 кадров/сек
Стандарт вещания: PAL
Цветовое пространство: YUV
Субдискретизация насыщенности: 4:2:0
Битовая глубина: 8 бит
Тип развёртки: Чересстрочная
Порядок развёртки: Верхнее поле первое
Метод сжатия: С потерями
Бит/(Пиксели*Кадры): 0.546
Размер потока: 789 Мбайт (77%)
Основные цвета: SMPTE 170M
Характеристики трансфера: SMPTE 170M
Коэффициенты матрицы: SMPTE 170M

Аудио
Идентификатор: 189 (0xBD)-160 (0xA0)
Формат: PCM
Параметр Endianness формата: Big
Параметр Sign формата: Signed
Режим смешивания: DVD-Video
Продолжительность: 19 м.
Вид битрейта: Постоянный
Битрейт: 1536 Кбит/сек
Каналы: 2 канала
Расположение каналов: Front: L R
Частота: 48,0 КГц
Битовая глубина: 16 бит
Задержка видео: 2 мс.
Размер потока: 214 Мбайт (21%)

Меню

Общее
Полное имя: Q:КОНЦЕРТЫ & КЛИПЫЗоя Ященко и группа Белая Гвардия (предновогодний концерт) 2006 гДиск 1VTS_01_2.VOB
Формат: MPEG-PS
Размер файла: 1024 Мбайт
Продолжительность: 19 м.
Режим общего битрейта: Переменный
Общий поток: 7346 Кбит/сек

Видео
Идентификатор: 224 (0xE0)
Формат: MPEG Video
Версия формата: Version 2
Профиль формата: [email protected]
Параметр BVOP формата: Да
Параметр матрицы формата: Выборочная
Параметр GOP формата: M=3, N=12
Продолжительность: 19 м.
Вид битрейта: Переменный
Битрейт: 5664 Кбит/сек
Максимальный битрейт: 8000 Кбит/сек
Ширина: 720 пикселей
Высота: 576 пикселей
Соотношение сторон: 4:3
Частота кадров: 25,000 кадров/сек
Стандарт вещания: PAL
Цветовое пространство: YUV
Субдискретизация насыщенности: 4:2:0
Битовая глубина: 8 бит
Тип развёртки: Чересстрочная
Порядок развёртки: Верхнее поле первое
Метод сжатия: С потерями
Бит/(Пиксели*Кадры): 0.546
Размер потока: 789 Мбайт (77%)
Основные цвета: SMPTE 170M
Характеристики трансфера: SMPTE 170M
Коэффициенты матрицы: SMPTE 170M

Аудио
Идентификатор: 189 (0xBD)-160 (0xA0)
Формат: PCM
Параметр Endianness формата: Big
Параметр Sign формата: Signed
Режим смешивания: DVD-Video
Продолжительность: 19 м.
Вид битрейта: Постоянный
Битрейт: 1536 Кбит/сек
Каналы: 2 канала
Расположение каналов: Front: L R
Частота: 48,0 КГц
Битовая глубина: 16 бит
Задержка видео: -330 мс.
Размер потока: 214 Мбайт (21%)

Меню

Общее
Полное имя: Q:КОНЦЕРТЫ & КЛИПЫЗоя Ященко и группа Белая Гвардия (предновогодний концерт) 2006 гДиск 1VTS_01_3.VOB
Формат: MPEG-PS
Размер файла: 1024 Мбайт
Продолжительность: 19 м.
Режим общего битрейта: Переменный
Общий поток: 7344 Кбит/сек

Видео
Идентификатор: 224 (0xE0)
Формат: MPEG Video
Версия формата: Version 2
Профиль формата: [email protected]
Параметр BVOP формата: Да
Параметр матрицы формата: Выборочная
Параметр GOP формата: M=3, N=12
Продолжительность: 19 м.
Вид битрейта: Переменный
Битрейт: 5662 Кбит/сек
Максимальный битрейт: 8000 Кбит/сек
Ширина: 720 пикселей
Высота: 576 пикселей
Соотношение сторон: 4:3
Частота кадров: 25,000 кадров/сек
Стандарт вещания: PAL
Цветовое пространство: YUV
Субдискретизация насыщенности: 4:2:0
Битовая глубина: 8 бит
Тип развёртки: Чересстрочная
Порядок развёртки: Верхнее поле первое
Метод сжатия: С потерями
Бит/(Пиксели*Кадры): 0.546
Размер потока: 789 Мбайт (77%)
Основные цвета: SMPTE 170M
Характеристики трансфера: SMPTE 170M
Коэффициенты матрицы: SMPTE 170M

Аудио
Идентификатор: 189 (0xBD)-160 (0xA0)
Формат: PCM
Параметр Endianness формата: Big
Параметр Sign формата: Signed
Режим смешивания: DVD-Video
Продолжительность: 19 м.
Вид битрейта: Постоянный
Битрейт: 1536 Кбит/сек
Каналы: 2 канала
Расположение каналов: Front: L R
Частота: 48,0 КГц
Битовая глубина: 16 бит
Задержка видео: -330 мс.
Размер потока: 214 Мбайт (21%)

Меню

Общее
Полное имя: Q:КОНЦЕРТЫ & КЛИПЫЗоя Ященко и группа Белая Гвардия (предновогодний концерт) 2006 гДиск 1VTS_01_4.VOB
Формат: MPEG-PS
Размер файла: 903 Мбайт
Продолжительность: 17 м.
Режим общего битрейта: Переменный
Общий поток: 7340 Кбит/сек

Видео
Идентификатор: 224 (0xE0)
Формат: MPEG Video
Версия формата: Version 2
Профиль формата: [email protected]
Параметр BVOP формата: Да
Параметр матрицы формата: Выборочная
Параметр GOP формата: M=3, N=12
Продолжительность: 17 м.
Вид битрейта: Переменный
Битрейт: 5658 Кбит/сек
Максимальный битрейт: 8000 Кбит/сек
Ширина: 720 пикселей
Высота: 576 пикселей
Соотношение сторон: 4:3
Частота кадров: 25,000 кадров/сек
Стандарт вещания: PAL
Цветовое пространство: YUV
Субдискретизация насыщенности: 4:2:0
Битовая глубина: 8 бит
Тип развёртки: Чересстрочная
Порядок развёртки: Верхнее поле первое
Метод сжатия: С потерями
Бит/(Пиксели*Кадры): 0.546
Размер потока: 696 Мбайт (77%)
Основные цвета: SMPTE 170M
Характеристики трансфера: SMPTE 170M
Коэффициенты матрицы: SMPTE 170M

Аудио
Идентификатор: 189 (0xBD)-160 (0xA0)
Формат: PCM
Параметр Endianness формата: Big
Параметр Sign формата: Signed
Режим смешивания: DVD-Video
Продолжительность: 17 м.
Вид битрейта: Постоянный
Битрейт: 1536 Кбит/сек
Каналы: 2 канала
Расположение каналов: Front: L R
Частота: 48,0 КГц
Битовая глубина: 16 бит
Задержка видео: -360 мс.
Размер потока: 189 Мбайт (21%)

Меню

Общее
Полное имя: Q:КОНЦЕРТЫ & КЛИПЫЗоя Ященко и группа Белая Гвардия (предновогодний концерт) 2006 гДиск 2VIDEO_TS.BUP
Формат: DVD Video
Профиль формата: Menu
Размер файла: 12,0 Кбайт
Режим общего битрейта: Переменный

Видео
Идентификатор: 224 (0xE0)
Формат: MPEG Video
Версия формата: Version 2
Вид битрейта: Переменный
Ширина: 720 пикселей
Высота: 576 пикселей
Соотношение сторон: 4:3
Частота кадров: 25,000 кадров/сек
Стандарт вещания: PAL
Метод сжатия: С потерями

Аудио
Формат: PCM
Каналы: 2 канала
Частота: 48,0 КГц

Общее
Полное имя: Q:КОНЦЕРТЫ & КЛИПЫЗоя Ященко и группа Белая Гвардия (предновогодний концерт) 2006 гДиск 2VIDEO_TS.IFO
Формат: DVD Video
Профиль формата: Menu
Размер файла: 12,0 Кбайт
Режим общего битрейта: Переменный

Видео
Идентификатор: 224 (0xE0)
Формат: MPEG Video
Версия формата: Version 2
Вид битрейта: Переменный
Ширина: 720 пикселей
Высота: 576 пикселей
Соотношение сторон: 4:3
Частота кадров: 25,000 кадров/сек
Стандарт вещания: PAL
Метод сжатия: С потерями

Аудио
Формат: PCM
Каналы: 2 канала
Частота: 48,0 КГц

Общее
Полное имя: Q:КОНЦЕРТЫ & КЛИПЫЗоя Ященко и группа Белая Гвардия (предновогодний концерт) 2006 гДиск 2VIDEO_TS.VOB
Формат: MPEG-PS
Размер файла: 44,0 Кбайт
Продолжительность: 158 мс.
Общий поток: 2281 Кбит/сек

Видео
Идентификатор: 224 (0xE0)
Формат: MPEG Video
Версия формата: Version 2
Профиль формата: [email protected]
Параметр BVOP формата: Нет
Параметр матрицы формата: Выборочная
Продолжительность: 40 мс.
Максимальный битрейт: 8000 Кбит/сек
Ширина: 720 пикселей
Высота: 576 пикселей
Соотношение сторон: 4:3
Частота кадров: 25,000 кадров/сек
Стандарт вещания: PAL
Цветовое пространство: YUV
Субдискретизация насыщенности: 4:2:0
Битовая глубина: 8 бит
Тип развёртки: Прогрессивная
Порядок развёртки: Нижнее поле первое
Метод сжатия: С потерями
Основные цвета: SMPTE 170M
Характеристики трансфера: SMPTE 170M
Коэффициенты матрицы: SMPTE 170M

Аудио
Идентификатор: 189 (0xBD)-160 (0xA0)
Формат: PCM
Параметр Endianness формата: Big
Параметр Sign формата: Signed
Режим смешивания: DVD-Video
Продолжительность: 158 мс.
Вид битрейта: Постоянный
Битрейт: 1536 Кбит/сек
Каналы: 2 канала
Расположение каналов: Front: L R
Частота: 48,0 КГц
Битовая глубина: 16 бит
Размер потока: 29,6 Кбайт (67%)

Меню

Общее
Полное имя: Q:КОНЦЕРТЫ & КЛИПЫЗоя Ященко и группа Белая Гвардия (предновогодний концерт) 2006 гДиск 2VTS_01_0.BUP
Формат: DVD Video
Профиль формата: Program
Размер файла: 50,0 Кбайт
Продолжительность: 1 ч. 5 м.
Режим общего битрейта: Переменный
Общий поток: 103 бит/сек

Видео
Идентификатор: 224 (0xE0)
Формат: MPEG Video
Версия формата: Version 2
Продолжительность: 1 ч. 5 м.
Вид битрейта: Переменный
Ширина: 720 пикселей
Высота: 576 пикселей
Соотношение сторон: 4:3
Частота кадров: 25,000 кадров/сек
Стандарт вещания: PAL
Метод сжатия: С потерями

Аудио
Идентификатор: 0 (0x0)
Формат: PCM
Продолжительность: 1 ч. 5 м.
Каналы: 2 канала
Частота: 48,0 КГц

Меню
Продолжительность: 1 ч. 5 м.
00:00:00.000: Chapter 1
00:01:27.520: Chapter 2
00:05:31.320: Chapter 3
00:09:34.200: Chapter 4
00:13:56.280: Chapter 5
00:16:46.160: Chapter 6
00:22:27.400: Chapter 7
00:28:27.160: Chapter 8
00:33:18.520: Chapter 9
00:39:34.840: Chapter 10
00:44:06.480: Chapter 11
00:47:07.920: Chapter 12
00:51:35.960: Chapter 13
00:57:36.800: Chapter 14
01:03:54.960: Chapter 15
List (Audio): 0

Общее
Полное имя: Q:КОНЦЕРТЫ & КЛИПЫЗоя Ященко и группа Белая Гвардия (предновогодний концерт) 2006 гДиск 2VTS_01_0.IFO
Формат: DVD Video
Профиль формата: Program
Размер файла: 50,0 Кбайт
Продолжительность: 1 ч. 5 м.
Режим общего битрейта: Переменный
Общий поток: 103 бит/сек

Видео
Идентификатор: 224 (0xE0)
Формат: MPEG Video
Версия формата: Version 2
Продолжительность: 1 ч. 5 м.
Вид битрейта: Переменный
Ширина: 720 пикселей
Высота: 576 пикселей
Соотношение сторон: 4:3
Частота кадров: 25,000 кадров/сек
Стандарт вещания: PAL
Метод сжатия: С потерями

Аудио
Идентификатор: 0 (0x0)
Формат: PCM
Продолжительность: 1 ч. 5 м.
Каналы: 2 канала
Частота: 48,0 КГц

Меню
Продолжительность: 1 ч. 5 м.
00:00:00.000: Chapter 1
00:01:27.520: Chapter 2
00:05:31.320: Chapter 3
00:09:34.200: Chapter 4
00:13:56.280: Chapter 5
00:16:46.160: Chapter 6
00:22:27.400: Chapter 7
00:28:27.160: Chapter 8
00:33:18.520: Chapter 9
00:39:34.840: Chapter 10
00:44:06.480: Chapter 11
00:47:07.920: Chapter 12
00:51:35.960: Chapter 13
00:57:36.800: Chapter 14
01:03:54.960: Chapter 15
List (Audio): 0

Общее
Полное имя: Q:КОНЦЕРТЫ & КЛИПЫЗоя Ященко и группа Белая Гвардия (предновогодний концерт) 2006 гДиск 2VTS_01_0.VOB
Формат: MPEG-PS
Размер файла: 35,1 Мбайт
Продолжительность: 11 с.
Режим общего битрейта: Переменный
Общий поток: 25,3 Мбит/сек

Видео
Идентификатор: 224 (0xE0)
Формат: MPEG Video
Версия формата: Version 2
Профиль формата: [email protected]
Параметр BVOP формата: Да
Параметр матрицы формата: Выборочная
Параметр GOP формата: M=3, N=12
Продолжительность: 11 с.
Вид битрейта: Переменный
Битрейт: 23,3 Мбит/сек
Максимальный битрейт: 8000 Кбит/сек
Ширина: 720 пикселей
Высота: 576 пикселей
Соотношение сторон: 4:3
Частота кадров: 25,000 кадров/сек
Стандарт вещания: PAL
Цветовое пространство: YUV
Субдискретизация насыщенности: 4:2:0
Битовая глубина: 8 бит
Тип развёртки: Чересстрочная
Порядок развёртки: Верхнее поле первое
Метод сжатия: С потерями
Бит/(Пиксели*Кадры): 2.243
Размер потока: 31,9 Мбайт (91%)
Основные цвета: SMPTE 170M
Характеристики трансфера: SMPTE 170M
Коэффициенты матрицы: SMPTE 170M

Аудио
Идентификатор: 189 (0xBD)-160 (0xA0)
Формат: PCM
Параметр Endianness формата: Big
Параметр Sign формата: Signed
Режим смешивания: DVD-Video
Продолжительность: 11 с.
Вид битрейта: Постоянный
Битрейт: 1536 Кбит/сек
Каналы: 2 канала
Расположение каналов: Front: L R
Частота: 48,0 КГц
Битовая глубина: 16 бит
Задержка видео: 2 мс.
Размер потока: 2,13 Мбайт (6%)

Текст
Идентификатор: 189 (0xBD)-32 (0x20)
Формат: RLE
Формат/Информация: Run-length encoding
Режим смешивания: DVD-Video
Задержка видео: 40 мс.

Меню

Общее
Полное имя: Q:КОНЦЕРТЫ & КЛИПЫЗоя Ященко и группа Белая Гвардия (предновогодний концерт) 2006 гДиск 2VTS_01_1.VOB
Формат: MPEG-PS
Размер файла: 1024 Мбайт
Продолжительность: 16 м.
Режим общего битрейта: Переменный
Общий поток: 8437 Кбит/сек

Видео
Идентификатор: 224 (0xE0)
Формат: MPEG Video
Версия формата: Version 2
Профиль формата: [email protected]
Параметр BVOP формата: Да
Параметр матрицы формата: Выборочная
Параметр GOP формата: M=3, N=12
Продолжительность: 16 м.
Вид битрейта: Переменный
Битрейт: 6733 Кбит/сек
Максимальный битрейт: 8000 Кбит/сек
Ширина: 720 пикселей
Высота: 576 пикселей
Соотношение сторон: 4:3
Частота кадров: 25,000 кадров/сек
Стандарт вещания: PAL
Цветовое пространство: YUV
Субдискретизация насыщенности: 4:2:0
Битовая глубина: 8 бит
Тип развёртки: Чересстрочная
Порядок развёртки: Верхнее поле первое
Метод сжатия: С потерями
Бит/(Пиксели*Кадры): 0.649
Размер потока: 817 Мбайт (80%)
Основные цвета: SMPTE 170M
Характеристики трансфера: SMPTE 170M
Коэффициенты матрицы: SMPTE 170M

Аудио
Идентификатор: 189 (0xBD)-160 (0xA0)
Формат: PCM
Параметр Endianness формата: Big
Параметр Sign формата: Signed
Режим смешивания: DVD-Video
Продолжительность: 16 м.
Вид битрейта: Постоянный
Битрейт: 1536 Кбит/сек
Каналы: 2 канала
Расположение каналов: Front: L R
Частота: 48,0 КГц
Битовая глубина: 16 бит
Задержка видео: 2 мс.
Размер потока: 186 Мбайт (18%)

Меню

Общее
Полное имя: Q:КОНЦЕРТЫ & КЛИПЫЗоя Ященко и группа Белая Гвардия (предновогодний концерт) 2006 гДиск 2VTS_01_2.VOB
Формат: MPEG-PS
Размер файла: 1024 Мбайт
Продолжительность: 16 м.
Режим общего битрейта: Переменный
Общий поток: 8446 Кбит/сек

Видео
Идентификатор: 224 (0xE0)
Формат: MPEG Video
Версия формата: Version 2
Профиль формата: [email protected]
Параметр BVOP формата: Да
Параметр матрицы формата: Выборочная
Параметр GOP формата: M=3, N=12
Продолжительность: 16 м.
Вид битрейта: Переменный
Битрейт: 6742 Кбит/сек
Максимальный битрейт: 8000 Кбит/сек
Ширина: 720 пикселей
Высота: 576 пикселей
Соотношение сторон: 4:3
Частота кадров: 25,000 кадров/сек
Стандарт вещания: PAL
Цветовое пространство: YUV
Субдискретизация насыщенности: 4:2:0
Битовая глубина: 8 бит
Тип развёртки: Чересстрочная
Порядок развёртки: Верхнее поле первое
Метод сжатия: С потерями
Бит/(Пиксели*Кадры): 0.650
Размер потока: 817 Мбайт (80%)
Основные цвета: SMPTE 170M
Характеристики трансфера: SMPTE 170M
Коэффициенты матрицы: SMPTE 170M

Аудио
Идентификатор: 189 (0xBD)-160 (0xA0)
Формат: PCM
Параметр Endianness формата: Big
Параметр Sign формата: Signed
Режим смешивания: DVD-Video
Продолжительность: 16 м.
Вид битрейта: Постоянный
Битрейт: 1536 Кбит/сек
Каналы: 2 канала
Расположение каналов: Front: L R
Частота: 48,0 КГц
Битовая глубина: 16 бит
Задержка видео: -88 мс.
Размер потока: 186 Мбайт (18%)

Меню

Общее
Полное имя: Q:КОНЦЕРТЫ & КЛИПЫЗоя Ященко и группа Белая Гвардия (предновогодний концерт) 2006 гДиск 2VTS_01_3.VOB
Формат: MPEG-PS
Размер файла: 1024 Мбайт
Продолжительность: 16 м.
Режим общего битрейта: Переменный
Общий поток: 8441 Кбит/сек

Видео
Идентификатор: 224 (0xE0)
Формат: MPEG Video
Версия формата: Version 2
Профиль формата: [email protected]
Параметр BVOP формата: Да
Параметр матрицы формата: Выборочная
Параметр GOP формата: M=3, N=12
Продолжительность: 16 м.
Вид битрейта: Переменный
Битрейт: 6737 Кбит/сек
Максимальный битрейт: 8000 Кбит/сек
Ширина: 720 пикселей
Высота: 576 пикселей
Соотношение сторон: 4:3
Частота кадров: 25,000 кадров/сек
Стандарт вещания: PAL
Цветовое пространство: YUV
Субдискретизация насыщенности: 4:2:0
Битовая глубина: 8 бит
Тип развёртки: Чересстрочная
Порядок развёртки: Верхнее поле первое
Метод сжатия: С потерями
Бит/(Пиксели*Кадры): 0.650
Размер потока: 817 Мбайт (80%)
Основные цвета: SMPTE 170M
Характеристики трансфера: SMPTE 170M
Коэффициенты матрицы: SMPTE 170M

Аудио
Идентификатор: 189 (0xBD)-160 (0xA0)
Формат: PCM
Параметр Endianness формата: Big
Параметр Sign формата: Signed
Режим смешивания: DVD-Video
Продолжительность: 16 м.
Вид битрейта: Постоянный
Битрейт: 1536 Кбит/сек
Каналы: 2 канала
Расположение каналов: Front: L R
Частота: 48,0 КГц
Битовая глубина: 16 бит
Задержка видео: -330 мс.
Размер потока: 186 Мбайт (18%)

Меню

Общее
Полное имя: Q:КОНЦЕРТЫ & КЛИПЫЗоя Ященко и группа Белая Гвардия (предновогодний концерт) 2006 гДиск 2VTS_01_4.VOB
Формат: MPEG-PS
Размер файла: 833 Мбайт
Продолжительность: 14 м.
Режим общего битрейта: Переменный
Общий поток: 7835 Кбит/сек

Видео
Идентификатор: 224 (0xE0)
Формат: MPEG Video
Версия формата: Version 2
Профиль формата: [email protected]
Параметр BVOP формата: Да
Параметр матрицы формата: Выборочная
Параметр GOP формата: M=3, N=12
Продолжительность: 14 м.
Вид битрейта: Переменный
Битрейт: 6143 Кбит/сек
Максимальный битрейт: 8000 Кбит/сек
Ширина: 720 пикселей
Высота: 576 пикселей
Соотношение сторон: 4:3
Частота кадров: 25,000 кадров/сек
Стандарт вещания: PAL
Цветовое пространство: YUV
Субдискретизация насыщенности: 4:2:0
Битовая глубина: 8 бит
Тип развёртки: Чересстрочная
Порядок развёртки: Верхнее поле первое
Метод сжатия: С потерями
Бит/(Пиксели*Кадры): 0.592
Размер потока: 653 Мбайт (78%)
Основные цвета: SMPTE 170M
Характеристики трансфера: SMPTE 170M
Коэффициенты матрицы: SMPTE 170M

Аудио
Идентификатор: 189 (0xBD)-160 (0xA0)
Формат: PCM
Параметр Endianness формата: Big
Параметр Sign формата: Signed
Режим смешивания: DVD-Video
Продолжительность: 14 м.
Вид битрейта: Постоянный
Битрейт: 1536 Кбит/сек
Каналы: 2 канала
Расположение каналов: Front: L R
Частота: 48,0 КГц
Битовая глубина: 16 бит
Задержка видео: -277 мс.
Размер потока: 163 Мбайт (20%)

Меню




Вернуться к началу
 Профиль Отправить личное сообщение  
 
   Похожие торренты   Автор   Торрент   Размер 
В этой теме нет новых непрочитанных сообщений. Агент 117: Каир – шпионское гнездо / OSS 117: Le Caire, nid d'espions [боевик, комедия, криминал, приключения, 2006] BDRip, Dub+Sub

salma3

83 | 25

2.06 ГБ

В этой теме нет новых непрочитанных сообщений. Полина Фомина - Рубикон (Бард-рок, Акустика. 2015) MP3

Aleksandr.ru

44 | 3

43.93 МБ

В этой теме нет новых непрочитанных сообщений. Гвардия Света [23.04.18] [MMORPG, Фэнтези, 2016] [Лицензия]

malvihka

1 | 1

523.8 МБ

В этой теме нет новых непрочитанных сообщений. Концерт Ирины Аллегровой в Олимпийском (Россия) [Концерт, 2015] HDTV 1080i

Dracon

335 | 52

6.13 ГБ

В этой теме нет новых непрочитанных сообщений. Праздничный концерт к Дню сотрудника органов внутренних дел (Россия) [Концерт, 2015] HDTVRip

Dracon

340 | 83

1.85 ГБ

В этой теме нет новых непрочитанных сообщений. Мне 65. Юбилейный концерт Олега Газманова (Концерт, 2017) HDTVRip от Files-х

marya111

148 | 23

1.19 ГБ

В этой теме нет новых непрочитанных сообщений. Концерт к юбилею Людмилы Гурченко «Еще не раз вы вспомните меня...» (Россия) [Концерт, 2015] HDTVRip

Dracon

112 | 34

1.26 ГБ


Начать новую тему Ответить на тему  [ 1 сообщение ] 




Для Мосгорсуда, Роскомнадзора и рекламодателей:: mosgorsud-torrent[собачка]yandex.ru
cron